Правила форума

  • В этом разделе создание новых тем Запрещено.
  • Для создания новых тем пользуйтесь Корневым разделом DVD и HD фильмы.
Начать новую темуОтветить на тему  [ 1 сообщение ] 
Торрент файл
Размер: 4.64 GB • Зарегистрирован: 1 год 2 месяца • Статус: Проверено
Скачан: 84 раза • Желающих скачать: 0 • Поблагодарили: 17 раз
 Раздают: 0  |  0 KB/s  ]   Качают: 0  |  0 KB/s  ] 
 Полного источника не было 1 месяц 2 дня 
Сообщения
 Добавлено: 2015-09-11 00:06
DVD Release Group
Аватара пользователя
Стаж: 7 лет 1 месяц
Сообщений: 3555
Спасибок: 247206
Лайков: 1018
Полтергейст

Poltergeist


Изображение


Год выпуска: 2015
Страна: США, Канада
Жанр: Ужасы, триллер
Продолжительность: 01:41:17
Перевод: Профессиональный (полное дублирование)
Примечание: EXTENDED версия длиннее театральной на ~8 мин. Полный лицензионный перевод.
Режиссер: Гил Кинан
В ролях: Сэм Рокуэлл, Розмари ДеУитт, Саксон Шарбино, Кайл Кэтлетт, Кеннеди Клементс, Джаред Харрис, Джейн Адамс, Сьюзэн Хэйард, Николас Браун, Карен Ивани
Описание: Когда страшные призраки забирают младшую дочь, семье приходится объединиться, чтобы спасти ее…
Изображение Изображение
Sample:
http://sendfile.su/1153476
Качество: BDRip 720p
Формат: MKV
Видео кодек: H.264
Аудио кодек: AC3, DTS
Видео: 1280x536 23.98fps 4688kbps
Аудио:
Аудио Rus: AC3 48kHz 6ch 384Kbps
Аудио Eng: DTS 48kHz 6ch 1510Kbps
"MediaInfo"
Формат : Matroska
Версия формата : Version 2
Размер файла : 4,64 Гбайт
Продолжительность : 1 ч. 40 м.
Общий поток : 6583 Кбит/сек
Дата кодирования : UTC 2015-09-10 19:19:53
Программа кодирования : mkvmerge v8.3.0 ('Over the Horizon') 64bit
Библиотека кодирования : libebml v1.3.1 + libmatroska v1.4.2
DURATION : 01:40:49.088000000
NUMBER_OF_FRAMES : 189034
NUMBER_OF_BYTES : 290356224
_STATISTICS_WRITING_APP : mkvmerge v8.3.0 ('Over the Horizon') 64bit
_STATISTICS_WRITING_DATE_UTC : 2015-09-10 19:19:53
_STATISTICS_TAGS : BPS DURATION NUMBER_OF_FRAMES NUMBER_OF_BYTES

Видео
Идентификатор : 1
Формат : AVC
Формат/Информация : Advanced Video Codec
Профиль формата : High@L4.1
Параметр CABAC формата : Да
Параметр ReFrames формата : 5 кадров
Идентификатор кодека : V_MPEG4/ISO/AVC
Продолжительность : 1 ч. 40 м.
Битрейт : 4688 Кбит/сек
Ширина : 1280 пикселей
Высота : 536 пикселей
Соотношение сторон : 2,40:1
Режим частоты кадров : Постоянный
Частота кадров : 23,976 кадра/сек
Цветовое пространство : YUV
Субдискретизация насыщенности : 4:2:0
Битовая глубина : 8 бит
Тип развёртки : Прогрессивная
Бит/(Пиксели*Кадры) : 0.285
Размер потока : 3,21 Гбайт (69%)
Библиотека кодирования : x264 core 148 r2597 e86f3a1
Настройки программы : cabac=1 / ref=5 / deblock=1:0:0 / analyse=0x3:0x133 / me=umh / subme=7 / psy=1 / psy_rd=1.00:0.00 / mixed_ref=1 / me_range=16 / chroma_me=1 / trellis=1 / 8x8dct=1 / cqm=0 / deadzone=21,11 / fast_pskip=0 / chroma_qp_offset=-2 / threads=17 / lookahead_threads=2 / sliced_threads=0 / nr=0 / decimate=1 / interlaced=0 / bluray_compat=0 / constrained_intra=0 / bframes=3 / b_pyramid=2 / b_adapt=1 / b_bias=0 / direct=1 / weightb=1 / open_gop=0 / weightp=2 / keyint=250 / keyint_min=23 / scenecut=40 / intra_refresh=0 / rc_lookahead=40 / rc=2pass / mbtree=1 / bitrate=4688 / ratetol=1.0 / qcomp=0.60 / qpmin=0 / qpmax=69 / qpstep=4 / cplxblur=20.0 / qblur=0.5 / ip_ratio=1.40 / aq=1:1.00
Язык : English
Default : Да
Forced : Нет
DURATION : 01:40:53.224000000
NUMBER_OF_FRAMES : 145132
NUMBER_OF_BYTES : 3546607244
_STATISTICS_WRITING_APP : mkvmerge v8.3.0 ('Over the Horizon') 64bit
_STATISTICS_WRITING_DATE_UTC : 2015-09-10 19:19:53
_STATISTICS_TAGS : BPS DURATION NUMBER_OF_FRAMES NUMBER_OF_BYTES

Аудио #1
Идентификатор : 2
Формат : AC-3
Формат/Информация : Audio Coding 3
Расширение режима : CM (complete main)
Параметр Endianness формата : Big
Идентификатор кодека : A_AC3
Продолжительность : 1 ч. 40 м.
Вид битрейта : Постоянный
Битрейт : 384 Кбит/сек
Каналы : 6 каналов
Расположение каналов : Front: L C R, Side: L R, LFE
Частота : 48,0 КГц
Битовая глубина : 16 бит
Метод сжатия : С потерями
Размер потока : 277 Мбайт (6%)
Default : Да
Forced : Нет

Аудио #2
Идентификатор : 3
Формат : DTS
Формат/Информация : Digital Theater Systems
Профиль формата : ES
Режим : 16
Параметр Endianness формата : Big
Идентификатор кодека : A_DTS
Продолжительность : 1 ч. 40 м.
Вид битрейта : Постоянный
Битрейт : 1509 Кбит/сек
Каналы : 6 каналов
Расположение каналов : Front: L C R, Side: L R, LFE
Частота : 48,0 КГц
Битовая глубина : 24 бит
Метод сжатия : С потерями
Размер потока : 1,06 Гбайт (23%)
Язык : English
Default : Нет
Forced : Нет

Меню
00:00:00.000 : en:00:00:00.000
00:04:57.339 : en:00:04:57.339
00:09:55.929 : en:00:09:55.929
00:16:26.444 : en:00:16:26.444
00:20:31.730 : en:00:20:31.730
00:22:34.228 : en:00:22:34.228
00:26:31.006 : en:00:26:31.006
00:30:01.883 : en:00:30:01.883
00:35:06.354 : en:00:35:06.354
00:37:27.662 : en:00:37:27.662
00:41:41.624 : en:00:41:41.624
00:46:55.104 : en:00:46:55.104
00:49:56.618 : en:00:49:56.618
00:53:41.134 : en:00:53:41.134
01:00:08.480 : en:01:00:08.480
01:04:28.323 : en:01:04:28.323
01:06:42.498 : en:01:06:42.498
01:09:39.592 : en:01:09:39.592
01:12:37.353 : en:01:12:37.353
01:16:06.186 : en:01:16:06.186
01:19:36.563 : en:01:19:36.563
01:25:23.076 : en:01:25:23.076
01:29:56.558 : en:01:29:56.558
01:35:01.779 : en:01:35:01.779
Свернуть

"Скриншоты"
Изображение
Изображение
Изображение
Свернуть
Не в сети
Профиль  
Начать новую темуОтветить на тему  [ 1 сообщение ] 
Вы не можете начинать темы
Вы не можете отвечать на сообщения
Вы не можете редактировать свои сообщения
Вы не можете удалять свои сообщения