Правила форума

  • В этом разделе создание новых тем Запрещено.
  • Для создания новых тем пользуйтесь Корневым разделом DVD и HD фильмы.
Начать новую темуОтветить на тему  [ 1 сообщение ] 
Торрент файл
Размер: 4.86 GB • Зарегистрирован: 4 года 10 месяцев • Статус: Проверено
Скачан: 26 раз • Желающих скачать: 0 • Поблагодарили: 11 раз
 Раздают: 0  |  0 KB/s  ]   Качают: 0  |  0 KB/s  ] 
 Полного источника не было 1 год 4 месяца 
Сообщения
 Добавлено: 2015-05-17 21:03
Top-releaser
Аватара пользователя
Стаж: 8 лет 7 месяцев
Сообщений: 1286
Спасибок: 3421
Лайков: 7
Полуночный экспресс / Midnight Express


«Walk into the incredible true experience of Billy Hayes, and bring all the courage you can!»

Изображение
Год выпуска: 1978
Страна: США, Великобритания
Жанр: триллер, драма, криминал, биография
Продолжительность: 02:00:59
Перевод: Субтитры, Профессиональный (многоголосый, закадровый), Профессиональный (полное дублирование), Авторский (Михалев Алексей)

Режиссер: Алан Паркер
Сценарий: Оливер Стоун, Билли Хейс, Уильям Хофнер
Продюсер: Питер Губер, Алан Маршалл, Дэвид Паттнэм
Оператор: Майкл Серезин
Композитор: Джорджо Мородер

В ролях: Брэд Дэвис (Billy Hayes), Джон Хёрт (Max), Рэнди Куэйд (Jimmy Booth), Бо Хопкинс (Tex), Айрин Миракл (Susan), Майк Келлин (Mr. Hayes), Пол Л. Смит (Hamidou), Майкл Яннатос (Translator), Норберт Вайссер (Erich), Паоло Боначелли (Rifki), Майкл Инсайн (Stanley Daniels), Ахмед Эль Шенави (Negdir)
Дублёры: Сергей Быстрицкий (Billy Hayes), Андрей Казанцев (Max), Борис Шувалов (Jimmy Booth), Жанна Никонова (Susan), Алексей Сафонов (Mr. Hayes), Борис Быстров (Rifki), Олег Куценко (Stanley Daniels), Юрий Меншагин (Negdir), Юрий Саранцев (Ahmet)

Описание: В основу этой драмы легли реальные события из жизни американского гражданина Билли Хейса. За незначительное правонарушение он был приговорен турецкими властями к беспрецедентно большому сроку.
Хейс оказался в мире, где всем правит насилие и ненависть, где любой новый день может оказаться последним. Там, в тени безысходных стен, среди заключенных, родилась легенда о «полуночном экспрессе». Так несчастные называли таинственный поезд, который каждую ночь проходит где - то рядом с тюрьмой и на котором можно спастись...


Раздача: Изображение

Изображение
Изображение

Бюджет: $2 300 000
Сборы в США: $35 000 000
Мировая премьера: 31 августа 1978

Знаете ли Вы, что...
  • Несмотря на то, что в титрах обозначено, что фильм основан на реальных событиях, Билли Хейс заявил, что события картины выглядят преувеличенными и отчасти вымышленными по сравнению с его настоящим заключением в Стамбульской тюрьме, более 20 лет назад.
  • На роль Билли Хейса претендовали Джон Траволта и Ричард Гир.
  • В книге Брэда Дэвиса, исполнителя главной роля фильма, рассказано, что во время раскрутки картины, в его жизни имели место проблемы с наркотиками.
  • Хотя действия фильма происходят в Турции, съемки «Полуночного экспресса» проходили в мальтийской Валетте.
  • Съемки перенесли на Мальту после получения отказа от турецких властей.
  • Турецкие чиновники сильно обиделись на то, как изображена их страна в фильме. Об этом они громко заявляли во всеуслышание.
  • В одной из начальных сцен в аэропорту можно заметить длинноволосого человека в темной одежде, удаляющегося от камеры. Этот товарищ сильно смахивает на режиссера картины Алана Паркера.
  • Сцена, в которой персонаж Брэда Дэвиса откусывает язык одного из заключенных, настолько не нравилась всей съемочной команде, что все ее члены покинули съемочную площадку во время ее съемки, оставив Алана Паркера с двумя актерами. На самом деле, Дэвису пришлось держать во рту свиной язык.
  • Первоначальный сценарий Оливера Стоуна предполагал раскрыть детали побега Билли Хейса через горы, но скромный бюджет проекта не позволил отснять эти сцены.
Свернуть

Качество: BDRip
Формат: Matroska
Видео: AVC; 1280x688 (1.860); 4532 kbps; 23,976 fps; 0,215 bit/pixel
Аудио №1: English; AC3; 640 kbps; CBR; 6 channels; 16 bit
Аудио №2: Russian; AC3; 192 kbps; CBR; 2 channels; 16 bit
Аудио №3: Russian; AC3; 192 kbps; CBR; 2 channels; 16 bit
Аудио №4: Russian; AC3; 192 kbps; CBR; 2 channels; 16 bit

Субтитры №1: English
Субтитры №2: Russian

MediaInfo
Общее
Уникальный идентификатор : 230661946558067926395399769676400193195 (0xAD87DFFF63B05C629BA8091AF2DA6EAB)
Полное имя : E:\Видео\Midnight.Express.1978.720p.BluRay.x264[R.G.KINOvNINO].mkv
Формат : Matroska
Версия формата : Version 2
Размер файла : 4,86 Гбайт
Продолжительность : 2 ч. 0 м.
Общий поток : 5750 Кбит/сек
Дата кодирования : UTC 2009-07-11 23:18:28
Программа кодирования : mkvmerge v2.9.7 ('Tenderness') built on Jul 1 2009 18:43:35
Библиотека кодирования : libebml v0.7.7 + libmatroska v0.8.1

Видео
Идентификатор : 1
Формат : AVC
Формат/Информация : Advanced Video Codec
Профиль формата : High@L4.1
Параметр CABAC формата : Да
Параметр ReFrames формата : 5 кадров
Идентификатор кодека : V_MPEG4/ISO/AVC
Продолжительность : 2 ч. 0 м.
Битрейт : 4532 Кбит/сек
Ширина : 1280 пикселей
Высота : 688 пикселей
Соотношение сторон : 1,860
Частота кадров : 23,976 кадра/сек
Цветовое пространство : YUV
Субдискретизация насыщенности : 4:2:0
Битовая глубина : 8 бит
Тип развёртки : Прогрессивная
Бит/(Пиксели*Кадры) : 0.215
Размер потока : 3,73 Гбайт (77%)
Библиотека кодирования : x264 core 68 r1179M 96e2229
Настройки программы : cabac=1 / ref=5 / deblock=1:0:0 / analyse=0x3:0x2 / me=umh / subme=7 / psy_rd=1.0:0.0 / mixed_ref=1 / me_range=16 / chroma_me=1 / trellis=1 / 8x8dct=1 / cqm=0 / deadzone=21,11 / chroma_qp_offset=-2 / threads=6 / nr=0 / decimate=1 / mbaff=0 / bframes=3 / b_pyramid=1 / b_adapt=1 / b_bias=0 / direct=1 / wpredb=1 / keyint=250 / keyint_min=25 / scenecut=40 / rc=2pass / bitrate=4532 / ratetol=1.0 / qcomp=0.60 / qpmin=10 / qpmax=51 / qpstep=4 / cplxblur=20.0 / qblur=0.5 / ip_ratio=1.40 / pb_ratio=1.30 / aq=1:1.00
Default : Да
Forced : Нет

Аудио #1
Идентификатор : 2
Формат : AC-3
Формат/Информация : Audio Coding 3
Расширение режима : CM (complete main)
Идентификатор кодека : A_AC3
Продолжительность : 2 ч. 0 м.
Вид битрейта : Постоянный
Битрейт : 640 Кбит/сек
Каналы : 6 каналов
Расположение каналов : Front: L C R, Side: L R, LFE
Частота : 48,0 КГц
Битовая глубина : 16 бит
Метод сжатия : С потерями
Размер потока : 554 Мбайт (11%)
Заголовок : AC3 5.1 640 kbps
Язык : English
Default : Нет
Forced : Нет

Аудио #2
Идентификатор : 4
Формат : AC-3
Формат/Информация : Audio Coding 3
Расширение режима : CM (complete main)
Идентификатор кодека : A_AC3
Продолжительность : 2 ч. 0 м.
Вид битрейта : Постоянный
Битрейт : 192 Кбит/сек
Каналы : 2 канала
Расположение каналов : Front: L R
Частота : 48,0 КГц
Битовая глубина : 16 бит
Метод сжатия : С потерями
Размер потока : 166 Мбайт (3%)
Заголовок : AC3 2.0 192 kbps MVO
Язык : Russian
Default : Да
Forced : Нет

Аудио #3
Идентификатор : 5
Формат : AC-3
Формат/Информация : Audio Coding 3
Расширение режима : CM (complete main)
Идентификатор кодека : A_AC3
Продолжительность : 2 ч. 0 м.
Вид битрейта : Постоянный
Битрейт : 192 Кбит/сек
Каналы : 2 канала
Расположение каналов : Front: L R
Частота : 48,0 КГц
Битовая глубина : 16 бит
Метод сжатия : С потерями
Размер потока : 166 Мбайт (3%)
Заголовок : AC3 2.0 192 kbps Dub
Язык : Russian
Default : Нет
Forced : Нет

Аудио #4
Идентификатор : 6
Формат : AC-3
Формат/Информация : Audio Coding 3
Расширение режима : CM (complete main)
Идентификатор кодека : A_AC3
Продолжительность : 2 ч. 0 м.
Вид битрейта : Постоянный
Битрейт : 192 Кбит/сек
Каналы : 2 канала
Расположение каналов : Front: L R
Частота : 48,0 КГц
Битовая глубина : 16 бит
Метод сжатия : С потерями
Размер потока : 166 Мбайт (3%)
Заголовок : AC3 2.0 192 kbps Mikhalev
Язык : Russian
Default : Нет
Forced : Нет

Текст #1
Идентификатор : 3
Формат : UTF-8
Идентификатор кодека : S_TEXT/UTF8
Идентификатор кодека/Информация : UTF-8 Plain Text
Язык : English
Default : Нет
Forced : Нет

Текст #2
Идентификатор : 7
Формат : UTF-8
Идентификатор кодека : S_TEXT/UTF8
Идентификатор кодека/Информация : UTF-8 Plain Text
Язык : Russian
Default : Нет
Forced : Нет

Свернуть

Скриншоты

Изображение

Изображение

Изображение

Изображение

Изображение

Свернуть


Тема поднималась пользователем Shamman 2015-05-17 21:03.
Не в сети
Профиль  
Начать новую темуОтветить на тему  [ 1 сообщение ] 
Вы не можете начинать темы
Вы не можете отвечать на сообщения
Вы не можете редактировать свои сообщения
Вы не можете удалять свои сообщения