Правила форума

  • В этом разделе создание новых тем Запрещено.
  • Для создания новых тем пользуйтесь Корневым разделом DVD и HD фильмы.
Начать новую темуОтветить на тему  [ 1 сообщение ] 
Торрент файл
Размер: 4.72 GB • Зарегистрирован: 5 лет 10 месяцев • Статус: Проверено
Скачан: 65 раз • Желающих скачать: 0 • Поблагодарили: 17 раз
 Раздают: 0  |  0 KB/s  ]   Качают: 0  |  0 KB/s  ] 
 Полного источника не было 2 года 3 месяца 
Сообщения
 Добавлено: 2011-01-17 20:40
Аватара пользователя
Стаж: 8 лет 7 месяцев
Возраст: 28
Сообщений: 742
Спасибок: 1324
Помни меня / Remember Me

«Живи мгновеньем, люби безоглядно...»

Изображение
Год выпуска:2010
Страна: США
Жанр: драма, мелодрама
Продолжительность: 01:21:50
Перевод:
Профессиональный (полное дублирование)

Режиссер: Аллен Култер
Сценарий: Уилл Феттерс
Продюсер: Кэрол Кадди, Тревор Энгельсон, Майкл Лэннан, Ник Осборн, Роберт Паттинсон
Оператор: Джонатан Фриман
Композитор: Марсело Зарвос


В ролях: Роберт Паттинсон (Tyler Hawkins), Кейтлин Ранд (Alyssa Craig), Мосес Ацеведо (Mugger), Эмили де Рэйвин (Ally Craig), Ноэль Родригез (Mugger), Кевин П. МакКарти (Police Chief), Крис Купер (Sgt. Neil Craig), Атена Кёрри (Toothbrush Girl), Лена Улин (Diane Hirsch), Грегори Джбара (Les Hirsch), Руби Джеринс (Caroline Hawkins), Пирс Броснан (Charles Hawkins)
Дублёры: Александр Гаврилин (Tyler Hawkins), Полина Щербакова (Ally Craig), Александр Груздев (Sgt. Neil Craig), Лиза Мартиросова (Caroline Hawkins), Владимир Антоник (Charles Hawkins), Александр Коврижных (Aidan Hall), Ирина Пономарева
Описание: Тайлер - беспечный студент, который никак не может найти общий язык с окружающим миром. Он подавлен смертью старшего брата. Отцу, как впрочем, и матери с отчимом, нет до него никакого дела. К счастью, у него есть друг Айдан. Однажды парни случайно ввязываются в уличную драку

Раздача: Изображение

Изображение


Доп. информация
Бюджет:$16 000 000
Сборы в мире: $55 832 815
Сборы в США: $19 068 240
Сборы в России: $3 476 569
Мировая премьера: 1 марта 2010
ИзображениеРелиз на DVD: 15 июля 2010, «Парадиз-ВC»
ИзображениеРелиз на Blu-ray:15 июля 2010, «Парадиз-ВC»
Рейтинг PG-13 — Детям до 13 лет просмотр не желателен
Изображение
Настоятельное предупреждение родителям. Данный рейтинг получают фильмы, содержание которых может считаться неприемлемым для детей, не достигших 13-летнего возраста. По-прежнему, при этом рейтинге на экране отсутствуют сцены с насилием и обнажёнкой, но уже могут присутствовать неконкретизированные эпизоды с наркотиками и слова, связанные с сексом.
Свернуть
Свернуть

Качество: BDRip 720
Формат: Matroska
Видео: H.264, 1280x720 (1.78:1), 23.976 fps, ~3933 Kbps
Аудио #1: AC3, 48 kHz, 3/2 (L,C,R,l,r) + LFE ch, 448 Kbps [rus] ~ дубляж R5
Аудио #2: DTS, 48 kHz, 3/2 (L,C,R,l,r) + LFE ch, 1536 Kbps [eng] ~ оригинал
Аудио #3: OGG, 48 kHz, 2/0 (L,R), 64 Kbps [eng] ~ комментарии #1
Аудио #4: OGG, 48 kHz, 2/0 (L,R), 64 Kbps [eng] ~ комментарии #2

MediaInfo
General
Complete name : K:\720\Remember.Me.2010.720p.BluRay.DTS.x264-HiDt.Rus.mkv
Format : Matroska
File size : 4.72 GiB
Duration : 1h 52mn
Overall bit rate : 6 018 Kbps
Encoded date : UTC 2010-08-09 14:59:10
Writing application : mkvmerge v4.2.0 ('No Talking') built on Jul 28 2010 18:38:23
Writing library : libebml v1.0.0 + libmatroska v1.0.0

Video
ID : 1
Format : AVC
Format/Info : Advanced Video Codec
Format profile : High@L4.1
Format settings, CABAC : Yes
Format settings, ReFrames : 8 frames
Muxing mode : Container profile=Unknown@4.1
Codec ID : V_MPEG4/ISO/AVC
Duration : 1h 52mn
Bit rate : 3 933 Kbps
Width : 1 280 pixels
Height : 720 pixels
Display aspect ratio : 16:9
Frame rate : 23.976 fps
Color space : YUV
Chroma subsampling : 4:2:0
Bit depth : 8 bits
Scan type : Progressive
Bits/(Pixel*Frame) : 0.178
Stream size : 2.99 GiB (63%)
Title : x264
Writing library : x264 core 98 r1643 59a9e03
Encoding settings : cabac=1 / ref=9 / deblock=1:-3:-3 / analyse=0x3:0x113 / me=umh / subme=10 / psy=1 / psy_rd=1.00:0.00 / mixed_ref=1 / me_range=64 / chroma_me=1 / trellis=2 / 8x8dct=1 / cqm=0 / deadzone=21,11 / fast_pskip=0 / chroma_qp_offset=-2 / threads=6 / sliced_threads=0 / nr=0 / decimate=0 / interlaced=0 / constrained_intra=0 / bframes=6 / b_pyramid=1 / b_adapt=2 / b_bias=0 / direct=1 / weightb=1 / weightp=2 / keyint=250 / keyint_min=25 / scenecut=40 / intra_refresh=0 / rc_lookahead=120 / rc=2pass / mbtree=1 / bitrate=3933 / ratetol=1.0 / qcomp=0.60 / qpmin=10 / qpmax=51 / qpstep=4 / cplxblur=20.0 / qblur=0.5 / ip_ratio=1.40 / aq=1:0.80

Audio #1
ID : 2
Format : AC-3
Format/Info : Audio Coding 3
Mode extension : CM (complete main)
Codec ID : A_AC3
Duration : 1h 52mn
Bit rate mode : Constant
Bit rate : 448 Kbps
Channel(s) : 6 channels
Channel positions : Front: L C R, Side: L R, LFE
Sampling rate : 48.0 KHz
Stream size : 360 MiB (7%)
Title : AC3 5.1 @ 448 kbps (dubbed R5)
Language : Russian

Audio #2
ID : 3
Format : DTS
Format/Info : Digital Theater Systems
Codec ID : A_DTS
Duration : 1h 52mn
Bit rate mode : Constant
Bit rate : 1 510 Kbps
Channel(s) : 6 channels
Channel positions : Front: L C R, Side: L R, LFE
Sampling rate : 48.0 KHz
Bit depth : 24 bits
Stream size : 1.18 GiB (25%)
Title : DTS 5.1 @ 1536 kbps

Audio #3
ID : 4
Format : Vorbis
Format settings, Floor : 1
Codec ID : A_VORBIS
Duration : 1h 52mn
Bit rate mode : Constant
Bit rate : 64.0 Kbps
Channel(s) : 2 channels
Sampling rate : 48.0 KHz
Stream size : 51.4 MiB (1%)
Title : Commentary #1
Writing library : libVorbis 20090709 (UTC 2009-07-09)

Audio #4
ID : 5
Format : Vorbis
Format settings, Floor : 1
Codec ID : A_VORBIS
Duration : 1h 52mn
Bit rate mode : Constant
Bit rate : 64.0 Kbps
Channel(s) : 2 channels
Sampling rate : 48.0 KHz
Stream size : 51.4 MiB (1%)
Title : Commentary #2
Writing library : libVorbis 20090709 (UTC 2009-07-09)

Text #1
ID : 6
Format : UTF-8
Codec ID : S_TEXT/UTF8
Codec ID/Info : UTF-8 Plain Text
Language : Russian

Text #2
ID : 7
Format : UTF-8
Codec ID : S_TEXT/UTF8
Codec ID/Info : UTF-8 Plain Text

Text #3
ID : 8
Format : UTF-8
Codec ID : S_TEXT/UTF8
Codec ID/Info : UTF-8 Plain Text
Language : Greek

Text #4
ID : 9
Format : UTF-8
Codec ID : S_TEXT/UTF8
Codec ID/Info : UTF-8 Plain Text
Language : Arabic

Menu
00:00:00.000 : en:01. Subway Station
00:04:20.886 : en:02. Paying Respects
00:10:53.194 : en:03. Morals vs Ethics
00:15:11.285 : en:04. Messed Up Situation
00:20:56.130 : en:05. Just Here to Tease Me
00:25:34.992 : en:06. I'm Undecided
00:32:24.568 : en:07. Dessert First
00:37:39.757 : en:08. Water Fight
00:45:54.835 : en:09. I Take After My Mother
00:52:15.257 : en:10. What's Going On Right Now?
00:59:22.934 : en:11. Trying to Impress You
01:05:45.900 : en:12. Mets vs Yankees
01:11:23.362 : en:13. You're Responsible For Nothing
01:17:38.529 : en:14. It Was a Bet
01:25:45.932 : en:15. Just Forgive Him
01:32:39.596 : en:16. Thanks For Bailing Me Out
01:39:22.665 : en:17. Pictures From the Past
01:44:01.193 : en:18. Moving Forward
Свернуть

Знаете ли Вы, что...
  • Съемки фильма проходили в Нью-Йорке.
  • Фрэн Кранц прослушивался на роль Айдана.
Свернуть
Скриншоты
Изображение
Изображение
Изображение
Свернуть
Не в сети
Профиль  
Начать новую темуОтветить на тему  [ 1 сообщение ] 
Вы не можете начинать темы
Вы не можете отвечать на сообщения
Вы не можете редактировать свои сообщения
Вы не можете удалять свои сообщения