Правила форума

  • В этом разделе создание новых тем Запрещено.
  • Для создания новых тем пользуйтесь Корневым разделом DVD и HD фильмы.
Начать новую темуОтветить на тему  [ Сообщений: 2 ] 
Торрент файл
Размер: 6.85 GB • Зарегистрирован: 3 года 11 месяцев • Статус: Проверено
Скачан: 93 раза • Желающих скачать: 0 • Поблагодарили: 17 раз
 Раздают: 0  |  0 KB/s  ]   Качают: 0  |  0 KB/s  ] 
 Полного источника не было 2 года 
Сообщения
 Добавлено: 2012-12-27 23:02
Модератор
Аватара пользователя
Стаж: 6 лет 10 месяцев
Возраст: 33
Сообщений: 5908
Спасибок: 61257
Лайков: 3540
Изображение

Помогите стать отцом
Not Suitable for Children


Год выпуска: 2012
Страна: Австралия
Жанр: мелодрама, комедия
Продолжительность: 01:35:52
Перевод: Профессиональный (полное дублирование) Лицензия
Режиссер: Питер Темплмен
Сценарий: Майкл Лукас, Питер Темплмен
Продюсер: Джоди Маттерсон, Даррен Эштон, Барбара Гиббс, Гари Хэмилтон, Бруна Папандреа
Оператор: Лачлан Милн
Композитор: Маттео Зингалес
В ролях: Райан Квантен, Сара Снук, Райан Корр, Бояна Новакович, Сьюзэн Прайор, Льюис Фиц-Джералд, Кэтерин Бек, Белинда Бромилов, Зои Каридес, Элис Паркинсон, Лулу МакКлэтчи, Дэниэл Хеншэлл
Бюджет: AUD 4 500 000
Мировая премьера: 6 июня 2012
Релиз на DVD: 24 декабря 2012, «Новый Диск»
Описание: Молодой плейбой узнает, что у него остался один месяц до того, как он станет бесплодным. И он решает как можно скорее зачать ребенка.

Изображение User Rating: 5.495 (335)
Изображение User Rating: 5.40 (992)
Раздача группы: Изображение
Изображение
Качество: BDRip, 1080p
Формат: Matroska
Видео: MPEG-4 AVC, 8273 Кбит/с, 1920x816, 23.976 кадр/с
Аудио: Русский (AC3, 6 ch, 448 Кбит/с), английский (DTS, 6 ch, 1510 Кбит/с)
Субтитры №1: Russian
Субтитры №2:

mediainfo
General
Unique ID : 208560143170309734600171023388059070978 (0x9CE738F55983F521A217D7414BAB7202)
Complete name : Pomogite.stat.otcom.2012.D.BDRip.1080p.IRONCLUB.mkv
Format : Matroska
Format version : Version 2
File size : 6.85 GiB
Duration : 1h 35mn
Overall bit rate : 10.2 Mbps
Movie name : IRONCLUB
Encoded date : UTC 2012-12-27 18:18:08
Writing application : mkvmerge v5.2.0 ('I can't explain') built on Dec 18 2011 18:12:03
Writing library : libebml v1.2.3 + libmatroska v1.3.0

Video
ID : 1
Format : AVC
Format/Info : Advanced Video Codec
Format profile : High@L4.1
Format settings, CABAC : Yes
Format settings, ReFrames : 5 frames
Codec ID : V_MPEG4/ISO/AVC
Duration : 1h 35mn
Bit rate : 8 273 Kbps
Width : 1 920 pixels
Height : 816 pixels
Display aspect ratio : 2.35:1
Frame rate mode : Constant
Frame rate : 24.000 fps
Color space : YUV
Chroma subsampling : 4:2:0
Bit depth : 8 bits
Scan type : Progressive
Bits/(Pixel*Frame) : 0.220
Stream size : 5.40 GiB (79%)
Title : Not.Suitable.For.Children.2012.1080p.BluRay.x264-PFa
Writing library : x264 core 129 r2230 1cffe9f
Encoding settings : cabac=1 / ref=5 / deblock=1:0:0 / analyse=0x3:0x133 / me=umh / subme=8 / psy=1 / psy_rd=1.00:0.00 / mixed_ref=1 / me_range=16 / chroma_me=1 / trellis=1 / 8x8dct=1 / cqm=0 / deadzone=21,11 / fast_pskip=0 / chroma_qp_offset=-2 / threads=12 / lookahead_threads=2 / sliced_threads=0 / nr=0 / decimate=1 / interlaced=0 / bluray_compat=0 / constrained_intra=0 / bframes=3 / b_pyramid=2 / b_adapt=1 / b_bias=0 / direct=1 / weightb=1 / open_gop=0 / weightp=2 / keyint=250 / keyint_min=24 / scenecut=40 / intra_refresh=0 / rc_lookahead=40 / rc=2pass / mbtree=1 / bitrate=8273 / ratetol=1.0 / qcomp=0.60 / qpmin=0 / qpmax=69 / qpstep=4 / cplxblur=20.0 / qblur=0.5 / ip_ratio=1.40 / aq=1:1.00
Language : English
Default : Yes
Forced : Yes

Audio #1
ID : 2
Format : AC-3
Format/Info : Audio Coding 3
Mode extension : CM (complete main)
Format settings, Endianness : Big
Codec ID : A_AC3
Duration : 1h 35mn
Bit rate mode : Constant
Bit rate : 448 Kbps
Channel(s) : 6 channels
Channel positions : Front: L C R, Side: L R, LFE
Sampling rate : 48.0 KHz
Bit depth : 16 bits
Compression mode : Lossy
Stream size : 307 MiB (4%)
Title : DD 5.1 @ 448 kbps - Dub, R5
Language : Russian
Default : Yes
Forced : Yes

Audio #2
ID : 3
Format : DTS
Format/Info : Digital Theater Systems
Mode : 16
Format settings, Endianness : Big
Codec ID : A_DTS
Duration : 1h 35mn
Bit rate mode : Constant
Bit rate : 1 509 Kbps
Channel(s) : 6 channels
Channel positions : Front: L C R, Side: L R, LFE
Sampling rate : 48.0 KHz
Bit depth : 24 bits
Compression mode : Lossy
Stream size : 1.01 GiB (15%)
Title : DTS 5.1 @ 1536 kbps
Language : English
Default : No
Forced : No

Text
ID : 4
Format : UTF-8
Codec ID : S_TEXT/UTF8
Codec ID/Info : UTF-8 Plain Text
Title : SDH
Language : English
Default : No
Forced : No
Свернуть
"Знаете ли Вы, что..."
  • Орхиэктомия (удаление яичка) почти никогда не вызывает никаких проблем с фертильностью кроме тех, что уже были до операции. А так как у героя нормальное количество сперматозоидов на момент диагностики, крайне маловероятно, что удаление одного яичка сделает его бесплодным.
Свернуть
Скриншоты

Изображение
Изображение
Изображение
Изображение
Свернуть
_________________
ИзображениеИзображение Изображение
Изображение
 tany1984 нравится это.
Не в сети
Профиль  
 Добавлено: 2013-01-02 21:04 (спустя 5 дней)
Аватара пользователя
Стаж: 4 года 1 месяц
Возраст: 21
Сообщений: 1360
Лайков: 7
первая ассоциация вызванная названием фильма это слово: как?
_________________
Если ты это читаешь, значит ты неудачник.
Не в сети
Профиль  
Начать новую темуОтветить на тему  [ Сообщений: 2 ] 
Вы не можете начинать темы
Вы не можете отвечать на сообщения
Вы не можете редактировать свои сообщения
Вы не можете удалять свои сообщения