Правила форума

  • В этом разделе создание новых тем Запрещено.
  • Для создания новых тем пользуйтесь Корневым разделом DVD и HD фильмы.
Начать новую темуОтветить на тему  [ Сообщений: 4 ] 
Торрент файл
Размер: 4.6 GB • Зарегистрирован: 2 года 7 месяцев • Статус: T Временный релиз
Скачан: 108 раз • Желающих скачать: 0 • Поблагодарили: 46 раз
 Раздают: 0  |  0 KB/s  ]   Качают: 0  |  0 KB/s  ] 
 Полного источника не было 4 дня 
Сообщения
 Добавлено: 2014-05-02 08:42
DVD Release Group
Аватара пользователя
Стаж: 7 лет 1 месяц
Сообщений: 3544
Спасибок: 246765
Лайков: 1016
Помпеи

Pompeii


Изображение


Год выпуска: 2014
Страна: США, Германия, Канада
Жанр: Приключения, боевик, драма, мелодрама
Продолжительность: 01:44:59
Перевод: Профессиональный (полное дублирование)
Субтитры: Английские
Режиссер: Пол У. С. Андерсон
В ролях: Саша Ройз, Кэрри-Энн Мосс, Адевале Акинойе-Агбаже, Эмили Браунинг, Джессика Лукас, Кифер Сазерленд, Кит Харингтон, Джо Пинг, Джаред Харрис, Карри Грэм
Описание: История любви раба Майло и благородной Кассии, обрученной с римским сенатором, на фоне извержения Везувия, которое навсегда стерло с лица земли древнеримский город Помпеи...
Изображение Изображение
Качество: BDRip 720p
Формат: MKV
Видео кодек: H.264
Аудио кодек: AC3, DTS
Видео: 1280х536 23.98fps 4443kbps
Аудио:
Аудио Rus: 48kHz 2ch 320kbps
Аудио Eng: 48kHz 6ch 1510kbps
"MediaInfo"
Формат : Matroska
Версия формата : Version 2
Размер файла : 4,60 Гбайт
Продолжительность : 1 ч. 44 м.
Общий поток : 6273 Кбит/сек
Дата кодирования : UTC 2014-05-02 05:15:52
Программа кодирования : mkvmerge v6.9.1 ('Blue Panther') 64bit built on Apr 18 2014 18:23:38
Библиотека кодирования : libebml v1.3.0 + libmatroska v1.4.1

Видео
Идентификатор : 1
Формат : AVC
Формат/Информация : Advanced Video Codec
Профиль формата : High@L4.1
Параметр CABAC формата : Да
Параметр ReFrames формата : 5 кадров
Идентификатор кодека : V_MPEG4/ISO/AVC
Продолжительность : 1 ч. 44 м.
Битрейт : 4443 Кбит/сек
Ширина : 1280 пикселей
Высота : 536 пикселей
Соотношение сторон : 2,40:1
Частота кадров : 23,976 кадра/сек
Цветовое пространство : YUV
Субдискретизация насыщенности : 4:2:0
Битовая глубина : 8 бит
Тип развёртки : Прогрессивная
Бит/(Пиксели*Кадры) : 0.270
Размер потока : 3,17 Гбайт (69%)
Библиотека кодирования : x264 core 142 r2431 ac76440
Настройки программы : cabac=1 / ref=5 / deblock=1:0:0 / analyse=0x3:0x133 / me=umh / subme=7 / psy=1 / psy_rd=1.00:0.00 / mixed_ref=1 / me_range=16 / chroma_me=1 / trellis=1 / 8x8dct=1 / cqm=0 / deadzone=21,11 / fast_pskip=1 / chroma_qp_offset=-2 / threads=8 / lookahead_threads=1 / sliced_threads=0 / nr=0 / decimate=1 / interlaced=0 / bluray_compat=0 / constrained_intra=0 / bframes=3 / b_pyramid=2 / b_adapt=2 / b_bias=0 / direct=3 / weightb=1 / open_gop=0 / weightp=2 / keyint=250 / keyint_min=23 / scenecut=40 / intra_refresh=0 / rc_lookahead=50 / rc=2pass / mbtree=1 / bitrate=4443 / ratetol=1.0 / qcomp=0.60 / qpmin=0 / qpmax=69 / qpstep=4 / cplxblur=20.0 / qblur=0.5 / ip_ratio=1.40 / aq=1:1.00
Язык : English
Default : Да
Forced : Да

Аудио #1
Идентификатор : 2
Формат : AC-3
Формат/Информация : Audio Coding 3
Расширение режима : CM (complete main)
Идентификатор кодека : A_AC3
Продолжительность : 1 ч. 44 м.
Вид битрейта : Постоянный
Битрейт : 320 Кбит/сек
Каналы : 2 канала
Расположение каналов : Front: L R
Частота : 48,0 КГц
Битовая глубина : 16 бит
Метод сжатия : С потерями
Размер потока : 240 Мбайт (5%)
Язык : Russian
Default : Да
Forced : Нет

Аудио #2
Идентификатор : 3
Формат : DTS
Формат/Информация : Digital Theater Systems
Идентификатор кодека : A_DTS
Продолжительность : 1 ч. 44 м.
Вид битрейта : Постоянный
Битрейт : 1510 Кбит/сек
Каналы : 6 каналов
Расположение каналов : Front: L C R, Side: L R, LFE
Частота : 48,0 КГц
Битовая глубина : 24 бит
Метод сжатия : С потерями
Размер потока : 1,11 Гбайт (24%)
Язык : English
Default : Нет
Forced : Нет

Текст #1
Идентификатор : 4
Формат : UTF-8
Идентификатор кодека : S_TEXT/UTF8
Идентификатор кодека/Информация : UTF-8 Plain Text
Заголовок : English
Язык : English
Default : Нет
Forced : Нет

Текст #2
Идентификатор : 5
Формат : UTF-8
Идентификатор кодека : S_TEXT/UTF8
Идентификатор кодека/Информация : UTF-8 Plain Text
Заголовок : English SDH
Язык : English
Default : Нет
Forced : Нет

Меню
00:00:00.000 : en:00:00:00.000
00:05:27.077 : en:00:05:27.077
00:09:51.674 : en:00:09:51.674
00:15:58.457 : en:00:15:58.457
00:19:52.858 : en:00:19:52.858
00:26:45.103 : en:00:26:45.103
00:32:36.621 : en:00:32:36.621
00:38:18.838 : en:00:38:18.838
00:47:35.811 : en:00:47:35.811
00:52:17.718 : en:00:52:17.718
01:03:25.218 : en:01:03:25.218
01:09:02.930 : en:01:09:02.930
01:17:27.309 : en:01:17:27.309
01:23:46.521 : en:01:23:46.521
01:30:04.149 : en:01:30:04.149
01:35:08.119 : en:01:35:08.119
Свернуть

"Скриншоты"
Изображение
Изображение
Изображение
Свернуть
 ALexBLac нравится это.
Не в сети
Профиль  
 Добавлено: 2014-05-02 18:44 (спустя 10 часов)
Аватара пользователя
Стаж: 7 лет 9 месяцев
Возраст: 49
Сообщений: 26
кто-нибудь посмотрел? как фильм?
Не в сети
Профиль  
 Добавлено: 2014-05-02 20:17 (спустя 1 час 33 минуты)
Аватара пользователя
Стаж: 8 лет 11 месяцев
Сообщений: 361
Спасибок: 278
Лайков: 2
Я ходил в кинотеатр,ничего так,можно посмотреть :)
_________________
Intel Core i5-3550, 8 Гб DDR3, Gainward GeForce GTX 660, Windows 10 Профессиональная X64 :exp_minus:
Не в сети
Профиль  
 Добавлено: 2014-05-04 23:47 (спустя 2 дня 3 часа)
Стаж: 7 лет 4 месяца
Сообщений: 47
Разврат присутствует в фильме?)
Не в сети
Профиль  
Начать новую темуОтветить на тему  [ Сообщений: 4 ] 
Вы не можете начинать темы
Вы не можете отвечать на сообщения
Вы не можете редактировать свои сообщения
Вы не можете удалять свои сообщения