Правила форума

  • В этом разделе создание новых тем Запрещено.
  • Для создания новых тем пользуйтесь Корневым разделом DVD и HD фильмы.
Начать новую темуОтветить на тему  [ Сообщений: 4 ] 
Торрент файл
Размер: 9.77 GB • Зарегистрирован: 2 года 6 месяцев • Статус: Проверено
Скачан: 228 раз • Желающих скачать: 0 • Поблагодарили: 85 раз
 Раздают: 1  |  0 KB/s  ]   Качают: 0  |  0 KB/s  ] 
Сообщения
 Добавлено: 2014-05-13 03:14
Аватара пользователя
Стаж: 9 лет 1 месяц
Сообщений: 7922
Спасибок: 122118
Лайков: 1191
Помпеи / Pompeii

«Некоторые истории пишутся кровью»

Изображение


Год выпуска: 2014
Страна: Изображение Канада Изображение Германия
Жанр: боевик, драма, мелодрама, приключения
Продолжительность: 01:44:59
Субтитры: Английские
Перевод: Профессиональный (полное дублирование) [Лицензия]


Режиссер: Пол У. С. Андерсон
Сценарий: Джанет Скотт Бэчлер, Ли Бэчлер, Майкл Роберт Джонсон
Продюсер: Пол У. С. Андерсон, Джереми Болт, Дон Кармоди
Оператор: Глен МакФерсон
Композитор: Клинтон Шотер

В ролях: Кит Харингтон, Эмили Браунинг, Кифер Сазерленд, Адевале Акиннуойе-Агбадже, Джаред Харрис, Кэрри-Энн Мосс, Джессика Лукас, Саша Ройз, Джо Пинг, Карри Грэм

Описание: История любви раба Майло и благородной Кассии, обрученной с римским сенатором, на фоне извержения Везувия, которое навсегда стерло с лица земли древнеримский город Помпеи…

Изображение Изображение

Раздача группы: Изображение

Качество: BDRip (1080p)
Формат: Matroska
Видео: MPEG-4 AVC, 11400 Kбит/с, 1920x800, 23.976 кадр/с
Аудио №1: Русский (AC3, 48,0 КГц, 6 ch, 384 Кбит/c)
Аудио №2: Английский (DTS, 48,0 КГц, 6 ch, 1510 Кбит/c)

MediaInfo
Общее
Уникальный идентификатор : 198798596357099413087238252147790887793 (0x958F378ADCE396ACBF36AA14C228BB71)
Полное имя : C:\Фильмы\Pompeii.2014.BluRay.1080p.DTS.RUS.ENG.x264-CHD.Dolby.mkv
Формат : Matroska
Версия формата : Version 2
Размер файла : 9,77 Гбайт
Продолжительность : 1 ч. 44 м.
Общий поток : 13,3 Мбит/сек
Дата кодирования : UTC 2014-05-12 23:44:30
Программа кодирования : mkvmerge v5.7.0 ('The Whirlwind') built on Jul 29 2012 15:12:35
Библиотека кодирования : libebml v1.2.3 + libmatroska v1.3.0

Видео
Идентификатор : 1
Формат : AVC
Формат/Информация : Advanced Video Codec
Профиль формата : High@L4.1
Параметр CABAC формата : Да
Параметр ReFrames формата : 5 кадров
Идентификатор кодека : V_MPEG4/ISO/AVC
Продолжительность : 1 ч. 44 м.
Битрейт : 11,4 Мбит/сек
Ширина : 1920 пикселей
Высота : 800 пикселей
Соотношение сторон : 2,40:1
Режим частоты кадров : Постоянный
Частота кадров : 23,976 кадра/сек
Цветовое пространство : YUV
Субдискретизация насыщенности : 4:2:0
Битовая глубина : 8 бит
Тип развёртки : Прогрессивная
Бит/(Пиксели*Кадры) : 0.311
Размер потока : 8,19 Гбайт (84%)
Библиотека кодирования : x264 core 138 r2358 9e941d1
Настройки программы : cabac=1 / ref=5 / deblock=1:-3:-3 / analyse=0x3:0x113 / me=umh / subme=11 / psy=1 / psy_rd=1.05:0.10 / mixed_ref=1 / me_range=48 / chroma_me=1 / trellis=2 / 8x8dct=1 / cqm=0 / deadzone=21,11 / fast_pskip=0 / chroma_qp_offset=-2 / threads=18 / lookahead_threads=1 / sliced_threads=0 / nr=0 / decimate=1 / interlaced=0 / bluray_compat=0 / constrained_intra=0 / bframes=6 / b_pyramid=2 / b_adapt=2 / b_bias=0 / direct=3 / weightb=1 / open_gop=0 / weightp=2 / keyint=250 / keyint_min=23 / scenecut=40 / intra_refresh=0 / rc_lookahead=40 / rc=2pass / mbtree=0 / bitrate=11445 / ratetol=2.0 / qcomp=0.70 / qpmin=0 / qpmax=69 / qpstep=4 / cplxblur=20.0 / qblur=0.5 / vbv_maxrate=40000 / vbv_bufsize=30000 / nal_hrd=none / ip_ratio=1.40 / pb_ratio=1.30 / aq=2:1.00
Язык : English
Default : Да
Forced : Нет

Аудио #1
Идентификатор : 2
Формат : AC-3
Формат/Информация : Audio Coding 3
Расширение режима : CM (complete main)
Параметр Endianness формата : Big
Идентификатор кодека : A_AC3
Продолжительность : 1 ч. 44 м.
Вид битрейта : Постоянный
Битрейт : 384 Кбит/сек
Каналы : 6 каналов
Расположение каналов : Front: L C R, Side: L R, LFE
Частота : 48,0 КГц
Битовая глубина : 16 бит
Метод сжатия : С потерями
Размер потока : 288 Мбайт (3%)
Язык : Russian
Default : Да
Forced : Да

Аудио #2
Идентификатор : 3
Формат : DTS
Формат/Информация : Digital Theater Systems
Режим : 16
Параметр Endianness формата : Big
Идентификатор кодека : A_DTS
Продолжительность : 1 ч. 44 м.
Вид битрейта : Постоянный
Битрейт : 1509 Кбит/сек
Каналы : 6 каналов
Расположение каналов : Front: L C R, Side: L R, LFE
Частота : 48,0 КГц
Битовая глубина : 24 бит
Метод сжатия : С потерями
Размер потока : 1,11 Гбайт (11%)
Язык : English
Default : Нет
Forced : Нет

Текст
Идентификатор : 4
Формат : UTF-8
Идентификатор кодека : S_TEXT/UTF8
Идентификатор кодека/Информация : UTF-8 Plain Text
Заголовок : Subtitle
Язык : English
Default : Нет
Forced : Нет

Меню
00:00:00.000 : en:00:00:00.000
00:05:27.077 : en:00:05:27.077
00:09:51.674 : en:00:09:51.674
00:15:58.457 : en:00:15:58.457
00:19:52.858 : en:00:19:52.858
00:26:45.103 : en:00:26:45.103
00:32:36.621 : en:00:32:36.621
00:38:18.838 : en:00:38:18.838
00:47:35.811 : en:00:47:35.811
00:52:17.718 : en:00:52:17.718
01:03:25.218 : en:01:03:25.218
01:09:02.930 : en:01:09:02.930
01:17:27.309 : en:01:17:27.309
01:23:46.521 : en:01:23:46.521
01:30:04.149 : en:01:30:04.149
01:35:08.119 : en:01:35:08.119
Свернуть
Знаете ли вы, что...
По словам продюсера Джереми Болта, создатели приложили максимум сил, чтобы сохранить в фильме «Помпеи» историческую правду. Да, основные герои вымышленные, но их образы и имена соответствуют реальным людям того исторического периода. Точное время, хронология и обстоятельства извержения Везувия воссозданы настолько правдиво, насколько это возможно в кино.

Один из крупнейших городов Римской империи Помпеи с его величественными храмами, аренами и банями был воссоздан благодаря грандиозным декорациям. Всего лишь треть антуража фильма сделана с помощью компьютерной графики.

Во время подготовки к съемкам, чтобы как можно более точно воссоздать сцены катастрофы 2000-летней давности, создатели тщательно изучили видеосъемки реальных природных явлений — землетрясений, извержений вулканов, смерчей.

Для съемок крупномасштабных сцен оператор Глен МакФерсон создал оригинальную конструкцию: он прикрепил камеру к вертолету с дистанционным управлением, который поднимался на высоту свыше 60 метров. Таким образом, создатели получили уникальные кадры, позволяющие зрителю увидеть историю и трагедию Помпей в масштабе места и времени.

Свернуть
Скриншоты
Изображение
Изображение
Изображение
Свернуть
Не в сети
Профиль  
 Добавлено: 2014-05-13 15:08 (спустя 11 часов)
Стаж: 8 лет 10 месяцев
Сообщений: 38
Лайков: 2
Когда в 3D выйдет?
Не в сети
Профиль  
 Добавлено: 2014-05-14 21:56 (спустя 1 день 6 часов)
Стаж: 2 года 9 месяцев
Сообщений: 25
спасибо! ожидаю классссссссссс :co_ol:
Не в сети
Профиль  
 Добавлено: 2014-05-17 18:17 (спустя 2 дня 20 часов)
Стаж: 3 года 10 месяцев
Сообщений: 187
Лайков: 61
Весь фильм - Одна сплошная компьютерная графика и причём не лучшего качества.
До начала извержения вулкана фильм ещё был как то интересен, но после...эта графика всё портит! Радовало одно, также до извержения, точнее одна - красивая женщина Аурелия, которая по фильму является женой Северуса и матерью этой юной особы, главной героини Кассии, Кэри - Энн Мосс - роскошная женщина!
 Andreynv нравится это.
Не в сети
Профиль  
Начать новую темуОтветить на тему  [ Сообщений: 4 ] 
Вы не можете начинать темы
Вы не можете отвечать на сообщения
Вы не можете редактировать свои сообщения
Вы не можете удалять свои сообщения