Правила форума

  • В этом разделе создание новых тем Запрещено.
  • Для создания новых тем пользуйтесь Корневым разделом DVD и HD фильмы.
Начать новую темуОтветить на тему  [ Сообщений: 2 ] 
Торрент файл
Размер: 10.45 GB • Зарегистрирован: 5 лет 2 месяца • Статус: Проверено
Скачан: 44 раза • Желающих скачать: 0 • Поблагодарили: 5 раз
 Раздают: 0  |  0 KB/s  ]   Качают: 0  |  0 KB/s  ] 
 Полного источника не было 3 года 2 месяца 
Сообщения
 Добавлено: 2011-10-03 20:03
Top-releaser
Стаж: 7 лет 4 месяца
Возраст: 33
Сообщений: 409
Спасибок: 6402
Лайков: 6
Попали!
Doghouse
«Война полов переходит в кровавую стадию!»

Изображение
Год выпуска: 2009
Страна: Великобритания
Жанр: ужасы, комедия
Продолжительность: 01:28:50
Перевод: Профессиональный (многоголосый)R5 + Профессиональный (многоголосый)R5 [ненормативная лексика] + Оригинал

Режиссер: Джэйк Уэст (Jake West)
Сценарий: Дэн Шаффер / Dan Schaffer
Продюсер: Майк Лавдей / Mike Loveday, Эдвин Бердоу / Edwin Beardow, Билли Мюррэй / Billy Murray, Айвор Понтинг / Ivor Ponting, Ли Ричардс / Lee Richards
Оператор: Али Асад / Ali Asad
Композитор: Ричард Уэллс / Richard Wells

В ролях: Дэнни Дайер (Neil), Ноэль Кларк (Mikey), Эмил Марва (Graham), Ли Инглби (Matt), Кейт-Ли Кастл (Patrick), Кристина Коул (Candy), Терри Стоун (Sergeant Gavin Wright), Нил Мэскелл (Banksy), Эмили Бут (The Snipper), Стивен Грэм (Vince), Виктория Хопкинс (The Bride), Дебора Хайд (The Barmaid)

Описание: Сюжет фильма повествует о нескольких людях, которые, путешествуя во время каникул, натыкаются на деревню, все жители которой - женщины, выжившие после того, как над их домами распылили экспериментальные смертоносные токсины. Все они после этого мутировали в психопаток-каннибалок, одержимых ненавистью к мужчинам. Путешественникам остается только посочувствовать, так как скорее всего, после встречи с подобными существами живые будут завидовать мертвым.


Рейтинг
Kinopoisk.RU: (6.645)
Imdb.com: 6.10 (6 540)


Качество: BD Remux 1080p
Формат: BDAV
Видео: VC-1; 1920x1080 (16:9); 13217 Kbps; 23,976 fps; 0,266 bpp
Аудио 1: AC3; 448 Kbps; CBR; 6 ch - (Многоголосый)
Аудио 2: AC3; 448 Kbps; CBR; 6 ch - (Многоголосый)[ненормативная лексика]
Аудио 3: DTS-HD; 2046 Kbps; CBR; 6 ch; 24 bit - Оригинал
Субтитры: Russian (ненормативная лексика), German, English

Релиз: Изображение
Доп.Информация
Цитата
Сохранены оригинальные чаптеры как на Blu-ray.
Свернуть
Mediainfo
General
ID : 1 (0x1)
Complete name : D:\uTorrent\Doghouse.2009.1080p.BD-Remux.Rus.Eng.HDCLUB\BDMV\STREAM\00000.m2ts
Format : BDAV
Format/Info : Blu-ray Video
File size : 10.5 GiB
Duration : 1h 28mn
Overall bit rate : 16.8 Mbps
Maximum Overall bit rate : 35.5 Mbps
Video
ID : 4113 (0x1011)
Menu ID : 1 (0x1)
Format : VC-1
Format profile : AP@L3
Codec ID : 234
Duration : 1h 28mn
Bit rate : 13.2 Mbps
Width : 1 920 pixels
Height : 1 080 pixels
Display aspect ratio : 16:9
Frame rate : 23.976 fps
Chroma subsampling : 4:2:0
Bit depth : 8 bits
Scan type : Progressive
Compression mode : Lossy
Bits/(Pixel*Frame) : 0.266
Stream size : 8.21 GiB (78%)
Audio 1
ID : 4352 (0x1100)
Menu ID : 1 (0x1)
Format : AC-3
Format/Info : Audio Coding 3
Mode extension : CM (complete main)
Codec ID : 129
Duration : 1h 28mn
Bit rate mode : Constant
Bit rate : 448 Kbps
Channel(s) : 6 channels
Channel positions : Front: L C R, Side: L R, LFE
Sampling rate : 48.0 KHz
Bit depth : 16 bits
Compression mode : Lossy
Stream size : 285 MiB (3%)
Language : Russian
Audio 2
ID : 4353 (0x1101)
Menu ID : 1 (0x1)
Format : AC-3
Format/Info : Audio Coding 3
Mode extension : CM (complete main)
Codec ID : 129
Duration : 1h 28mn
Bit rate mode : Constant
Bit rate : 448 Kbps
Channel(s) : 6 channels
Channel positions : Front: L C R, Side: L R, LFE
Sampling rate : 48.0 KHz
Bit depth : 16 bits
Compression mode : Lossy
Stream size : 285 MiB (3%)
Language : Russian
Audio 3
ID : 4354 (0x1102)
Menu ID : 1 (0x1)
Format : DTS
Format/Info : Digital Theater Systems
Format profile : HRA / Core
Muxing mode : Stream extension
Codec ID : 133
Duration : 1h 28mn
Bit rate mode : Constant
Bit rate : 2 047 Kbps / 1 510 Kbps
Channel(s) : 6 channels
Channel positions : Front: L C R, Side: L R, LFE
Sampling rate : 48.0 KHz
Bit depth : 24 bits
Compression mode : Lossy
Stream size : 1.27 GiB (12%)
Language : English
Свернуть
Скриншоты
Изображение

Изображение

Изображение
Свернуть
Не в сети
Профиль  
 Добавлено: 2011-11-29 13:49 (спустя 1 месяц 25 дней)
Аватара пользователя
Стаж: 6 лет 7 месяцев
Сообщений: 564
Спасибок: 1110
Лайков: 3
ржачный фильм!!))
Не в сети
Профиль  
Начать новую темуОтветить на тему  [ Сообщений: 2 ] 
Вы не можете начинать темы
Вы не можете отвечать на сообщения
Вы не можете редактировать свои сообщения
Вы не можете удалять свои сообщения