Правила форума

  • В этом разделе создание новых тем Запрещено.
  • Для создания новых тем пользуйтесь Корневым разделом DVD и HD фильмы.
Начать новую темуОтветить на тему  [ 1 сообщение ] 
Торрент файл
Размер: 9.72 GB • Зарегистрирован: 3 года 11 месяцев • Статус: Проверено
Скачан: 97 раз • Желающих скачать: 0 • Поблагодарили: 17 раз
 Раздают: 0  |  0 KB/s  ]   Качают: 0  |  0 KB/s  ] 
 Полного источника не было 2 года 6 месяцев 
Сообщения
 Добавлено: 2012-12-12 06:52
Аватара пользователя
Стаж: 9 лет 1 месяц
Сообщений: 7969
Спасибок: 122176
Лайков: 1191
Порочная страсть / Arbitrage

«Власть - лучшее алиби»

Изображение


Год выпуска: 2012
Страна: Изображение США
Жанр: триллер, драма
Продолжительность: 01:46:41
Перевод: Профессиональный (полное дублирование)


Режиссёр: Николас Джареки
Сценарист: Николас Джареки
Продюсер: Лаура Бикфорд, Джастин Наппи, Роберт Салерно
Оператор: Йорик Ле Со
Композитор: Клифф Мартинес

В ролях: Ричард Гир, Сьюзен Сарандон, Тим Рот, Брит Марлинг, Летиция Каста, Нэйт Паркер, Уильям Фридкин, Моника Рэйманд, Джош Пэйс, Кристофер Айджмен

Описание: Роберт Миллер — харизматичный аферист и гениальный любовник. Он привык к тому, что в постелях его всегда ждут жена и любовница, которые, правда, попеременно закатывают ему скандалы, а огромные деньги делаются просто из воздуха. Но дутый бизнес не может держаться долго. Почуяв провал, он стремится поскорее продать свой хедж-фонд крупному банку, прежде чем раскроются его махинации. Непредвиденные события и нелепые ошибки толкают его на отчаянный шаг…

Изображение Изображение

Качество: BDRip (1080p)
Формат: Matroska
Видео: MPEG-4 AVC, 10.5 Мбит/с, 1920x1080
Аудио №1: Русский (AC3, 6 ch, 448 Кбит/с)
Аудио №2: Русский (DTS, 6 ch, 755 Кбит/с)
Аудио №3: Английский (DTS, 6 ch, 1510 Кбит/с)

MediaInfo
Общее
Уникальный идентификатор : 187711977932644623213461369156320841041 (0x8D38030D53096495BCFC6CCA92674D51)
Полное имя : H:\Arbitrage.2012.1080p.nntt.org.mkv
Формат : Matroska
Версия формата : Version 2
Размер файла : 9,72 Гбайт
Продолжительность : 1 ч. 46 м.
Общий поток : 13,0 Мбит/сек
Название фильма : CMEGRoup
Дата кодирования : UTC 2012-12-12 03:52:45
Программа кодирования : mkvmerge v5.8.0 ('No Sleep / Pillow') built on Sep 2 2012 15:37:04
Библиотека кодирования : libebml v1.2.3 + libmatroska v1.3.0

Видео
Идентификатор : 1
Формат : AVC
Формат/Информация : Advanced Video Codec
Профиль формата : High@L4.1
Параметр CABAC формата : Да
Параметр ReFrames формата : 4 кадра
Режим смешивания : Header stripping
Идентификатор кодека : V_MPEG4/ISO/AVC
Продолжительность : 1 ч. 46 м.
Битрейт : 10,5 Мбит/сек
Ширина : 1920 пикселей
Высота : 1080 пикселей
Соотношение сторон : 16:9
Режим частоты кадров : Постоянный
Частота кадров : 23,976 кадра/сек
Цветовое пространство : YUV
Субдискретизация насыщенности : 4:2:0
Битовая глубина : 8 бит
Тип развёртки : Прогрессивная
Бит/(Пиксели*Кадры) : 0.211
Размер потока : 7,51 Гбайт (77%)
Библиотека кодирования : x264 core 129 r2230 1cffe9f
Настройки программы : cabac=1 / ref=4 / deblock=1:-3:-3 / analyse=0x3:0x113 / me=umh / subme=10 / psy=1 / psy_rd=1.00:0.00 / mixed_ref=1 / me_range=24 / chroma_me=1 / trellis=2 / 8x8dct=1 / cqm=0 / deadzone=21,11 / fast_pskip=1 / chroma_qp_offset=-2 / threads=6 / lookahead_threads=1 / sliced_threads=0 / nr=0 / decimate=1 / interlaced=0 / bluray_compat=0 / constrained_intra=0 / bframes=6 / b_pyramid=2 / b_adapt=2 / b_bias=0 / direct=2 / weightb=0 / open_gop=0 / weightp=2 / keyint=240 / keyint_min=23 / scenecut=40 / intra_refresh=0 / rc_lookahead=40 / rc=2pass / mbtree=1 / bitrate=10500 / ratetol=1.0 / qcomp=0.60 / qpmin=0 / qpmax=69 / qpstep=4 / cplxblur=20.0 / qblur=0.5 / ip_ratio=1.40 / aq=1:1.00 / zones=145877,153470,q=40
Язык : English
Default : Да
Forced : Нет

Аудио #1
Идентификатор : 2
Формат : AC-3
Формат/Информация : Audio Coding 3
Расширение режима : CM (complete main)
Параметр Endianness формата : Big
Идентификатор кодека : A_AC3
Продолжительность : 1 ч. 46 м.
Вид битрейта : Постоянный
Битрейт : 448 Кбит/сек
Каналы : 6 каналов
Расположение каналов : Front: L C R, Side: L R, LFE
Частота : 48,0 КГц
Битовая глубина : 16 бит
Метод сжатия : С потерями
Размер потока : 342 Мбайт (3%)
Язык : Russian
Default : Да
Forced : Нет

Аудио #2
Идентификатор : 3
Формат : DTS
Формат/Информация : Digital Theater Systems
Режим : 16
Параметр Endianness формата : Big
Режим смешивания : Header stripping
Идентификатор кодека : A_DTS
Продолжительность : 1 ч. 46 м.
Вид битрейта : Постоянный
Битрейт : 755 Кбит/сек
Каналы : 6 каналов
Расположение каналов : Front: L C R, Side: L R, LFE
Частота : 48,0 КГц
Битовая глубина : 24 бит
Метод сжатия : С потерями
Размер потока : 576 Мбайт (6%)
Язык : Russian
Default : Нет
Forced : Нет

Аудио #3
Идентификатор : 4
Формат : DTS
Формат/Информация : Digital Theater Systems
Режим : 16
Параметр Endianness формата : Big
Режим смешивания : Header stripping
Идентификатор кодека : A_DTS
Продолжительность : 1 ч. 46 м.
Вид битрейта : Постоянный
Битрейт : 1509 Кбит/сек
Каналы : 6 каналов
Расположение каналов : Front: L C R, Side: L R, LFE
Частота : 48,0 КГц
Битовая глубина : 24 бит
Метод сжатия : С потерями
Размер потока : 1,12 Гбайт (12%)
Язык : English
Default : Нет
Forced : Нет

Меню
00:00:00.000 : :Chapter 01
00:01:31.299 : :Chapter 02
00:12:30.666 : :Chapter 03
00:22:58.835 : :Chapter 04
00:32:02.462 : :Chapter 05
00:45:33.355 : :Chapter 06
01:05:03.274 : :Chapter 07
01:18:40.966 : :Chapter 08
01:37:26.465 : :Chapter 09
Свернуть
Скриншоты
Изображение
Изображение
Изображение
Изображение
Изображение
Свернуть
В сети
Профиль  
Начать новую темуОтветить на тему  [ 1 сообщение ] 
Вы не можете начинать темы
Вы не можете отвечать на сообщения
Вы не можете редактировать свои сообщения
Вы не можете удалять свои сообщения