Правила форума

  • В этом разделе создание новых тем Запрещено.
  • Для создания новых тем пользуйтесь Корневым разделом DVD и HD фильмы.
Начать новую темуОтветить на тему  [ 1 сообщение ] 
Торрент файл
Размер: 4.78 GB • Зарегистрирован: 3 года 5 месяцев • Статус: T Временный релиз
Скачан: 45 раз • Желающих скачать: 0 • Поблагодарили: 16 раз
 Раздают: 0  |  0 KB/s  ]   Качают: 0  |  0 KB/s  ] 
 Полного источника не было 2 года 5 месяцев 
Сообщения
 Добавлено: 2013-06-17 07:11
Аватара пользователя
Стаж: 7 лет 2 месяца
Сообщений: 7167
Спасибок: 82018
Лайков: 2438
Посылка / The Package

«Vengeance delivered.»

Изображение


Год выпуска: 2013
Страна: США
Жанр: боевик
Продолжительность: 01:35:24
Перевод: Любительский (двухголосый закадровый) + Оригинальная звуковая дорожка
Субтитры: Английские

Режиссёр: Джесси Джонсон
В ролях: Дольф Лундгрен, Стив Остин, Даррен Шахлави, Джерри Тримбл, Майкл Дэйнджерфилд, Моник Гандертон...
Описание: Курьер Томми должен доставить таинственную посылку местному криминальному авторитету. Задача усложняется по мере того, как о посылке узнают гангстеры. С этого момента начинается смертельная игра, победителем которой суждено стать лишь одному…


Качество: BDRip 720p
Формат: MKV
Видео кодек: H264 (AVC)
Аудио кодек: AC3 (Dolby Digital)
Видео: 1 280x720, 25.000 fps, 5 907 Kbps
Аудио #1: 48.0 KHz, 6 ch, 640 Kbps [Любительский (двухголосый закадровый)] den904 & DeadSno
Аудио #2: 48.0 KHz, 6 ch, 640 Kbps [Оригинальная звуковая дорожка]
Субтитры: Английские
Изображение
Скриншоты
Изображение

Изображение

Изображение

Изображение

Изображение
Свернуть
MI
General
Unique ID : 177327758374669888107016802077228714668 (0x8568157FE046B8A39B406E41D380CAAC)
Complete name : Посылка.2012.mkv
Format : Matroska
Format version : Version 2
File size : 4.78 GiB
Duration : 1h 35mn
Overall bit rate : 7 180 Kbps
Encoded date : UTC 2013-02-11 11:29:49
Writing application : mkvmerge v5.4.0 built on Mar 10 2012 13:34:39
Writing library : libebml v1.2.3 + libmatroska v1.3.0

Video
ID : 1
Format : AVC
Format/Info : Advanced Video Codec
Format profile : High@L4.1
Format settings, CABAC : Yes
Format settings, ReFrames : 9 frames
Codec ID : V_MPEG4/ISO/AVC
Duration : 1h 35mn
Bit rate : 5 907 Kbps
Width : 1 280 pixels
Height : 720 pixels
Display aspect ratio : 16:9
Frame rate : 23.976 fps
Color space : YUV
Chroma subsampling : 4:2:0
Bit depth : 8 bits
Scan type : Progressive
Bits/(Pixel*Frame) : 0.267
Stream size : 3.84 GiB (80%)
Title : The Package 2012
Writing library : x264 core 129 r2245+729M 1a52e03
Encoding settings : cabac=1 / ref=9 / deblock=1:1:1 / analyse=0x3:0x113 / me=umh / subme=10 / psy=1 / fade_compensate=0.00 / psy_rd=1.05:0.10 / mixed_ref=1 / me_range=32 / chroma_me=1 / trellis=2 / 8x8dct=1 / cqm=0 / deadzone=21,11 / fast_pskip=0 / chroma_qp_offset=-2 / threads=12 / lookahead_threads=1 / sliced_threads=0 / nr=0 / decimate=1 / interlaced=0 / bluray_compat=0 / constrained_intra=0 / fgo=0 / bframes=6 / b_pyramid=2 / b_adapt=2 / b_bias=0 / direct=3 / weightb=1 / open_gop=0 / weightp=2 / keyint=250 / keyint_min=23 / scenecut=40 / intra_refresh=0 / rc=2pass / mbtree=0 / bitrate=5907 / ratetol=1.0 / qcomp=0.70 / qpmin=0 / qpmax=69 / qpstep=4 / cplxblur=20.0 / qblur=0.5 / ip_ratio=1.40 / pb_ratio=1.30 / aq=2:1.00
Language : English
Default : Yes
Forced : No

Audio #1
ID : 2
Format : AC-3
Format/Info : Audio Coding 3
Mode extension : CM (complete main)
Format settings, Endianness : Big
Codec ID : A_AC3
Duration : 1h 35mn
Bit rate mode : Constant
Bit rate : 640 Kbps
Channel(s) : 6 channels
Channel positions : Front: L C R, Side: L R, LFE
Sampling rate : 48.0 KHz
Bit depth : 16 bits
Compression mode : Lossy
Stream size : 437 MiB (9%)
Title : Russian AC3 5.1 640Kbps
Language : Russian
Default : Yes
Forced : No

Audio #2
ID : 3
Format : AC-3
Format/Info : Audio Coding 3
Mode extension : CM (complete main)
Format settings, Endianness : Big
Codec ID : A_AC3
Duration : 1h 35mn
Bit rate mode : Constant
Bit rate : 640 Kbps
Channel(s) : 6 channels
Channel positions : Front: L C R, Side: L R, LFE
Sampling rate : 48.0 KHz
Bit depth : 16 bits
Compression mode : Lossy
Stream size : 437 MiB (9%)
Title : English AC3 5.1 640Kbps
Language : English
Default : No
Forced : No

Text
ID : 4
Format : UTF-8
Codec ID : S_TEXT/UTF8
Codec ID/Info : UTF-8 Plain Text
Language : English
Default : No
Forced : No

Menu
00:00:00.000 : en:00:00:00.000
00:08:08.321 : en:00:08:08.321
00:21:54.813 : en:00:21:54.813
00:27:08.210 : en:00:27:08.210
00:34:05.794 : en:00:34:05.794
00:41:18.685 : en:00:41:18.685
00:49:21.834 : en:00:49:21.834
00:55:43.590 : en:00:55:43.590
01:01:51.374 : en:01:01:51.374
01:13:16.726 : en:01:13:16.726
01:20:55.559 : en:01:20:55.559
01:31:21.184 : en:01:31:21.184




Свернуть
 zima-letoru и rotametr нравится это.
Не в сети
Профиль  
Начать новую темуОтветить на тему  [ 1 сообщение ] 
Вы не можете начинать темы
Вы не можете отвечать на сообщения
Вы не можете редактировать свои сообщения
Вы не можете удалять свои сообщения