Правила форума

  • В этом разделе создание новых тем Запрещено.
  • Для создания новых тем пользуйтесь Корневым разделом DVD и HD фильмы.
Начать новую темуОтветить на тему  [ Сообщений: 2 ] 
Торрент файл
Размер: 3.64 GB • Зарегистрирован: 4 года 5 месяцев • Статус: Проверено
Скачан: 66 раз • Желающих скачать: 0 • Поблагодарили: 13 раз
 Раздают: 0  |  0 KB/s  ]   Качают: 0  |  0 KB/s  ] 
 Полного источника не было 2 года 1 месяц 
Сообщения
 Добавлено: 2012-06-17 10:36
Книголюб
Аватара пользователя
Стаж: 7 лет 2 месяца
Сообщений: 2823
Спасибок: 48825
Лайков: 73
Последнее завещание Нобеля
Nobels testamente

Изображение


Год выпуска: 2011
Страна: Швеция
Слоган: «Не торопись раскрыть эту тайну!»
Жанр: Детектив, Драма, Криминал, Триллер
Продолжительность: 01:28:43
Перевод: Профессиональный (дубляж)

Режиссёр: Петер Флинт
В ролях: Ричард Ульфзэтер, Бьёрн Чьелльман, Лейф Андре, Кайса Эрнст, Эрик Йоханссон, Феликс Энгстрем, Антье Трое
Описание: Во время торжественного ужина по случаю вручения Нобелевской премии репортер криминальной хроники Аника Бенгцтон становится невольным свидетелем убийства высокопоставленного чиновника. Полиция запрещает ей оглашать какие-либо подробности по делу, но репортер до мозга костей не в силах противиться журналистскому призванию. Аника начинает самостоятельное расследование, которое приводит ее к страшной разгадке.
Мировая премьера: 2 марта 2012
Премьера в России: 12 апреля 2012, «Каравелла DDC»
Изображение 6.209 1 272

Качество: BDRip 720p
Формат: MKV
Видео кодек: H.264
Аудио кодек: AC3 (Dolby Digital)
Видео: 1280x544 24fps 5 240 Kbps 0.314Bits/Pixel
Аудио #1: 48000Hz 6ch 384.Kbps
MediaInfo
General
Unique ID : 252217594264812760384559853944033327974 (0xBDBF577B972AD1A4A02FFA6691353B66)
Complete name : K:\Torrent\Nobels testamente.mkv
Format : Matroska
Format version : Version 2
File size : 3.64 GiB
Duration : 1h 32mn
Overall bit rate : 5 623 Kbps
Movie name : Poslednee.zaveshanie.nobelja.2012.D.BDRip.720p.NNM-CLUB
Encoded date : UTC 2012-06-16 19:33:36
Writing application : mkvmerge v3.4.0 ('Rapunzel') сборка от May 15 2010 09:38:20
Writing library : libebml v0.8.0 + libmatroska v0.9.0

Video
ID : 1
Format : AVC
Format/Info : Advanced Video Codec
Format profile : High@L3.1
Format settings, CABAC : Yes
Format settings, ReFrames : 5 frames
Codec ID : V_MPEG4/ISO/AVC
Duration : 1h 32mn
Bit rate : 5 240 Kbps
Width : 1 280 pixels
Height : 544 pixels
Display aspect ratio : 2.35:1
Frame rate : 24.000 fps
Color space : YUV
Chroma subsampling : 4:2:0
Bit depth : 8 bits
Scan type : Progressive
Bits/(Pixel*Frame) : 0.314
Stream size : 3.32 GiB (91%)
Title : Poslednee.zaveshanie.nobelja.2012.D.BDRip.720p.NNM-CLUB
Writing library : x264 core 125 r2200 999b753
Encoding settings : cabac=1 / ref=5 / deblock=1:0:0 / analyse=0x3:0x133 / me=umh / subme=7 / psy=1 / psy_rd=1.00:0.00 / mixed_ref=1 / me_range=16 / chroma_me=1 / trellis=1 / 8x8dct=1 / cqm=0 / deadzone=21,11 / fast_pskip=0 / chroma_qp_offset=-2 / threads=12 / lookahead_threads=2 / sliced_threads=0 / nr=0 / decimate=1 / interlaced=0 / bluray_compat=0 / constrained_intra=0 / bframes=3 / b_pyramid=2 / b_adapt=2 / b_bias=0 / direct=3 / weightb=1 / open_gop=0 / weightp=2 / keyint=250 / keyint_min=24 / scenecut=40 / intra_refresh=0 / rc_lookahead=50 / rc=2pass / mbtree=1 / bitrate=5240 / ratetol=1.0 / qcomp=0.60 / qpmin=0 / qpmax=69 / qpstep=4 / cplxblur=20.0 / qblur=0.5 / ip_ratio=1.40 / aq=1:1.00
Language : Swedish
Default : No
Forced : No

Audio
ID : 2
Format : AC-3
Format/Info : Audio Coding 3
Mode extension : CM (complete main)
Codec ID : A_AC3
Duration : 1h 32mn
Bit rate mode : Constant
Bit rate : 384 Kbps
Channel(s) : 6 channels
Channel positions : Front: L C R, Side: L R, LFE
Sampling rate : 48.0 KHz
Bit depth : 16 bits
Compression mode : Lossy
Delay relative to video : 6ms
Stream size : 255 MiB (7%)
Title : AC3.384.Kbps
Language : Russian
Default : Yes
Forced : No


Свернуть

Скриншоты
Изображение
Изображение
Изображение
Свернуть
Не в сети
Профиль  
 Добавлено: 2012-06-17 22:03 (спустя 11 часов)
Стаж: 6 лет 2 месяца
Сообщений: 15
вау! фенькъю! ждём 1080 и золото.
Не в сети
Профиль  
Начать новую темуОтветить на тему  [ Сообщений: 2 ] 
Вы не можете начинать темы
Вы не можете отвечать на сообщения
Вы не можете редактировать свои сообщения
Вы не можете удалять свои сообщения