Правила форума

  • В этом разделе создание новых тем Запрещено.
  • Для создания новых тем пользуйтесь Корневым разделом DVD и HD фильмы.
Начать новую темуОтветить на тему  [ 1 сообщение ] 
Торрент файл
Размер: 11.72 GB • Зарегистрирован: 5 лет 2 месяца • Статус: Проверено
Скачан: 34 раза • Желающих скачать: 0 • Поблагодарили: 10 раз
 Раздают: 0  |  0 KB/s  ]   Качают: 0  |  0 KB/s  ] 
 Полного источника не было 1 месяц 5 дней 
Сообщения
 Добавлено: 2011-09-24 22:27
Модератор релиз-группы
Аватара пользователя
Стаж: 9 лет 1 месяц
Возраст: 97
Сообщений: 11659
Спасибок: 6532
Лайков: 269
Последний бойскаут/The Last Boy Scout

Изображение


Год выпуска: 1991
Производство: Geffen Pictures, Geffen Pictures, Warner Bros. Pictures Co.
Страна: США
Слоган: «Everyone had counted them out. But they're about to get back in the game»

Жанр: Боевик, Детектив, Комедия
Продолжительность: 01:45:24
Перевод: Профессиональный (полное дублирование)
Авторский закадровый , Гаврилов *"старый" вариант
Многоголосный закадровый, НТВ
Оригинальная звуковая дорожка
Субтитры: Русские и Английские
Режиссер: Тони Скотт / Tony Scott
Сценарий: Шейн Блэк, Грег Хикс
Продюсер: Шейн Блэк, Бэрри Джозефсон, Майкл Леви
Оператор: Уорд Рассел
Композитор: Майкл Кэмен
В ролях: Брюс Уиллис, Дэймон Уайанс, Челси Филд, Ноубл Уиллингэм, Тейлор Негрон, Даниэль Харрис, Холли Берри, Брюс МакГилл, Баджа Джола, Ким Коутс

Описание: Крепкий орешек Уиллис задает теперь кое-кому жару на колоритном фоне профессионального футбола. Действия — и весьма жизненного — выше крыши. В паре с чернокожим красавцем, бывшим футболистом, они попадают в засады, с юмором сокрушают злодеев и дерутся что есть силы.
Изображение
Формат: Matroska
Видео: x264, 1920х800 (2.40:1), 12.1 Mbps at 23.976 fps
Аудио №1: Russian: 48 kHz, AC3, 3/2 (L,C,R,l,r) + LFE ch, ~640.00 kbps avg |Дублированный|
Аудио №2: Russian: 48 kHz, DTS, 3/2 (L,C,R,l,r) + LFE ch, ~1536.00.00 kbps avg |Авторский закадровый , Гаврилов *"старый" вариант|
Аудио №3: Russian: 48 kHz, AC3, 2/0 (L,C) ~192.00 kbps avg |Многоголосный закадровый, НТВ|
Аудио №4: English: 48 kHz, DTS, 3/2 (L,C,R,l,r) + LFE ch, ~1536.00.00 kbps avg |Оригинальный|
Субтитры: Русские (3-х видов), Английские
скриншоты
Изображение

Изображение

Изображение

Изображение

Изображение
Свернуть

Mi
Format : Matroska
File size : 11.7 GiB
Duration : 1h 45mn
Overall bit rate : 15.9 Mbps
Movie name :
Encoded date : UTC 2010-11-20 22:21:49
Writing application : mkvmerge v4.4.0 ('Die Wiederkehr') сборка от Oct 31 2010 21:52:48
Writing library : libebml v1.0.0 + libmatroska v1.0.0

Video
ID : 1
Format : AVC
Format/Info : Advanced Video Codec
Format profile : High@L4.1
Format settings, CABAC : Yes
Format settings, ReFrames : 5 frames
Muxing mode : Container profile=Unknown@4.1
Codec ID : V_MPEG4/ISO/AVC
Duration : 1h 45mn
Bit rate : 12.1 Mbps
Width : 1 920 pixels
Height : 800 pixels
Display aspect ratio : 2.40:1
Frame rate : 23.976 fps
Color space : YUV
Chroma subsampling : 4:2:0
Bit depth : 8 bits
Scan type : Progressive
Bits/(Pixel*Frame) : 0.328
Stream size : 8.65 GiB (74%)
Writing library : x264 core 98 r1649 20cbe10
Encoding settings : cabac=1 / ref=5 / deblock=1:-4:-4 / analyse=0x3:0x113 / me=umh / subme=9 / psy=1 / psy_rd=1.00:0.15 / mixed_ref=1 / me_range=32 / chroma_me=1 / trellis=2 / 8x8dct=1 / cqm=0 / deadzone=21,11 / fast_pskip=0 / chroma_qp_offset=-5 / threads=12 / sliced_threads=0 / nr=0 / decimate=0 / interlaced=0 / constrained_intra=0 / bframes=7 / b_pyramid=2 / b_adapt=2 / b_bias=0 / direct=3 / weightb=1 / weightp=2 / keyint=250 / keyint_min=25 / scenecut=40 / intra_refresh=0 / rc_lookahead=40 / rc=2pass / mbtree=0 / bitrate=12069 / ratetol=1.0 / qcomp=0.60 / qpmin=10 / qpmax=51 / qpstep=4 / cplxblur=20.0 / qblur=0.5 / vbv_maxrate=40000 / vbv_bufsize=40000 / ip_ratio=1.40 / pb_ratio=1.30 / aq=1:0.80 / nal_hrd=none
Language : English

Audio #1
ID : 2
Format : AC-3
Format/Info : Audio Coding 3
Mode extension : CM (complete main)
Codec ID : A_AC3
Duration : 1h 45mn
Bit rate mode : Constant
Bit rate : 640 Kbps
Channel(s) : 6 channels
Channel positions : Front: L C R, Side: L R, LFE
Sampling rate : 48.0 KHz
Bit depth : 16 bits
Stream size : 483 MiB (4%)
Title : AC3 5.1 640 kbps |Дубляж|
Language : Russian

Audio #2
ID : 3
Format : DTS
Format/Info : Digital Theater Systems
Codec ID : A_DTS
Duration : 1h 45mn
Bit rate mode : Constant
Bit rate : 1 510 Kbps
Channel(s) : 6 channels
Channel positions : Front: L C R, Side: L R, LFE
Sampling rate : 48.0 KHz
Bit depth : 24 bits
Stream size : 1.11 GiB (9%)
Title : DTS 5.1 1536 kbps |Авторский закадровый, Гаврилов|
Language : Russian

Audio #3
ID : 4
Format : AC-3
Format/Info : Audio Coding 3
Mode extension : CM (complete main)
Codec ID : A_AC3
Duration : 1h 45mn
Bit rate mode : Constant
Bit rate : 192 Kbps
Channel(s) : 2 channels
Channel positions : Front: L R
Sampling rate : 48.0 KHz
Bit depth : 16 bits
Stream size : 145 MiB (1%)
Title : AC3 2.0 192 kbps |Многоголосный закадровый, НТВ|
Language : Russian

Audio #4
ID : 5
Format : DTS
Format/Info : Digital Theater Systems
Codec ID : A_DTS
Duration : 1h 45mn
Bit rate mode : Constant
Bit rate : 1 510 Kbps
Channel(s) : 6 channels
Channel positions : Front: L C R, Side: L R, LFE
Sampling rate : 48.0 KHz
Bit depth : 24 bits
Stream size : 1.11 GiB (9%)
Title : DTS 5.1 1536 kbps |Оригинал|
Language : English

Text #1
ID : 6
Format : UTF-8
Codec ID : S_TEXT/UTF8
Codec ID/Info : UTF-8 Plain Text
Title : Русские #1
Language : Russian

Text #2
ID : 7
Format : UTF-8
Codec ID : S_TEXT/UTF8
Codec ID/Info : UTF-8 Plain Text
Title : Русские #2
Language : Russian

Text #3
ID : 8
Format : UTF-8
Codec ID : S_TEXT/UTF8
Codec ID/Info : UTF-8 Plain Text
Title : Русские #3
Language : Russian

Text #4
ID : 9
Format : UTF-8
Codec ID : S_TEXT/UTF8
Codec ID/Info : UTF-8 Plain Text
Title : Оригинальные
Language : English
Свернуть
_________________
Изображение
Не в сети
Профиль  
Начать новую темуОтветить на тему  [ 1 сообщение ] 
Вы не можете начинать темы
Вы не можете отвечать на сообщения
Вы не можете редактировать свои сообщения
Вы не можете удалять свои сообщения