Правила форума

  • В этом разделе создание новых тем Запрещено.
  • Для создания новых тем пользуйтесь Корневым разделом DVD и HD фильмы.
Начать новую темуОтветить на тему  [ Сообщений: 7 ] 
Торрент файл
Размер: 13.91 GB • Зарегистрирован: 3 года 9 месяцев • Статус: Проверено
Скачан: 15 раз • Желающих скачать: 0 • Поблагодарили: 8 раз
 Раздают: 0  |  0 KB/s  ]   Качают: 0  |  0 KB/s  ] 
 Полного источника не было 3 года 
Сообщения
 Добавлено: 2013-03-04 11:06
Дрeвнeйший торрeнтовщик
Аватара пользователя
Стаж: 9 лет 1 месяц
Возраст: 34
Сообщений: 1486
Спасибок: 4483
Лайков: 13
Последний бойскаут/The Last Boy Scout

Изображение


Год выпуска: 1991
Производство: Geffen Pictures, Geffen Pictures, Warner Bros. Pictures Co.
Страна: США
Слоган: «Everyone had counted them out. But they're about to get back in the game»

Жанр: Боевик, Детектив, Комедия
Продолжительность: 01:45:25
Перевод: Профессиональный (полное дублирование),
Авторский закадровый, Многоголосный закадровый.

Режиссер: Тони Скотт / Tony Scott
Сценарий: Шейн Блэк, Грег Хикс
Продюсер: Шейн Блэк, Бэрри Джозефсон, Майкл Леви
Оператор: Уорд Рассел
Композитор: Майкл Кэмен
В ролях: Брюс Уиллис, Дэймон Уайанс, Челси Филд, Ноубл Уиллингэм, Тейлор Негрон, Даниэль Харрис, Холли Берри, Брюс МакГилл, Баджа Джола, Ким Коутс

Описание: Джо был американским героем - человеком, спасшим президента, а теперь он частный детектив, проснувшийся после очередной попойки в своей старенькой машине с больной головой и семейными проблемами. Весьма кстати подворачивается непыльная работенка - охрана звезды захудалого стриптиз-клуба. Однако события выходят из-под контроля - сначала убивают его друга, а потом и стриптизершу, которую Джо должен охранять. Ее парень Джимми Дикс - футболист, списанный из-за наркотиков, не меньше Джо хочет разобраться в этом деле, тем более что прямо перед смертью она обещала ему подарок ко дню рождения - возвращение в большой спорт


Формат: Matroska
Видео: x264, 1920х800 (2.40:1), 12.1 Mbps at 23.976 fps
Аудио №1: Russian: 48 kHz, AC3, Профессиональный дублированный
Аудио №2: Russian: 48 kHz, AC3, Профессиональный дублированный Варус Видео
Аудио №3: Russian: 48 kHz, AC3, Многоголосный закадровый, НТВ
Аудио №4: Russian: 48 kHz, DTS, Авторский закадровый Горчаков
Аудио №5: Russian: 48 kHz, AC3, Авторский закадровый Гаврилов "НОВЫЙ" вариант
Аудио №6: Russian: 48 kHz, DTS, Авторский закадровый Гаврилов "старый" вариант
Аудио №7: Russian: 48 kHz, DTS, Авторский закадровый Юрий Сербин
Аудио №8: Russian: 48 kHz, AC3, Авторский закадровый Сергей "Инспектор" Ловаситов
Аудио №9: Russian: 48 kHz, AC3, Авторский закадровый Михаил Яроцкий

Знаете ли Вы, что....
• В одной из сцен Джо (Брюс Уиллис) говорит о пицце с козьим сыром. Точно такую же пиццу упоминает персонаж Брюса Уиллиса в «Гудзонском ястребе» (1991).
• Дариан смотрит по телевизору «Смертельное оружие» (1987), сценарий к которому также написал Шэйн Блэк.
• Шэйн Блэк стал первым сценаристом, получившим $1 млн. за сценарий.
• Композитору Майклу Кеймену очень не понравился фильм, но будучи хорошим другом Брюса Уиллиса и Джоэля Силвера, он согласился написать музыку к картине.
• Пистолет, который Джо забирает у сутенера, — «Desert Eagle in .357 Magnum».
• Машина Джо — «Buick ’Boat tail’ Riviera» модель 1971 года.
• В первой версии сценария действие в последней трети фильма должно было происходить на воде. Главными злодеями должными были стать сенатор Бэйнард и его сын Луис, которые погибали в концовке фильма.
• Слово «fuck» произносится по ходу действия фильма 102 раза.
Свернуть


Оплата перевода пользователями федералки
Заказ перевода у Юрия Сербина оплачен пользователями трекера:rooti89etg, AnryV, denis_mgn_1987, Batman1988, eyrobot, Slimka,GansAn, Fess Necromant,NZ6220, hulahup, DREADG,Atherix, Loki1982,rebz9i, Kashima_K, Afavorskij.
Свернуть


скриншоты
Изображение

Изображение

Изображение

Изображение
Свернуть


Mi
General
UniqueID : 181861888409167923906733087974725734493 (0x88D1535EA689E31299FD0FABC46B505D)
Complete name : D:\Downloads\Последний бойскаут - The Last Boy Scout.mkv
Format : Matroska
File size : 13.9 GiB
Duration : 1h 45mn
Overall bit rate : 18.9 Mbps
Movie name : Последний бойскаут / The Last Boy Scout
Encoded date : UTC 2013-03-04 07:27:35
Writing application : mkvmerge v6.1.0 ('Old Devil') built on Mar 2 2013 14:32:37
Writing library : libebml v1.3.0 + libmatroska v1.4.0

Video
ID : 1
Format : AVC
Format/Info : Advanced Video Codec
Format profile : High@L4.1
Format settings, CABAC : Yes
Format settings, ReFrames : 5 frames
Codec ID : V_MPEG4/ISO/AVC
Duration : 1h 45mn
Bit rate : 12.1 Mbps
Width : 1 920 pixels
Height : 800 pixels
Display aspect ratio : 2.40:1
Frame rate : 23.976 fps
Color space : YUV
Chroma subsampling : 4:2:0
Bit depth : 8 bits
Scan type : Progressive
Bits/(Pixel*Frame) : 0.328
Stream size : 8.60 GiB (62%)
Title : Последний бойскаут / The Last Boy Scout
Writing library : x264 core 98 r1649 20cbe10
Encoding settings : cabac=1 / ref=5 / deblock=1:-4:-4 / analyse=0x3:0x113 / me=umh / subme=9 / psy=1 / psy_rd=1.00:0.15 / mixed_ref=1 / me_range=32 / chroma_me=1 / trellis=2 / 8x8dct=1 / cqm=0 / deadzone=21,11 / fast_pskip=0 / chroma_qp_offset=-5 / threads=12 / sliced_threads=0 / nr=0 / decimate=0 / interlaced=0 / constrained_intra=0 / bframes=7 / b_pyramid=2 / b_adapt=2 / b_bias=0 / direct=3 / weightb=1 / weightp=2 / keyint=250 / keyint_min=25 / scenecut=40 / intra_refresh=0 / rc_lookahead=40 / rc=2pass / mbtree=0 / bitrate=12069 / ratetol=1.0 / qcomp=0.60 / qpmin=10 / qpmax=51 / qpstep=4 / cplxblur=20.0 / qblur=0.5 / vbv_maxrate=40000 / vbv_bufsize=40000 / ip_ratio=1.40 / pb_ratio=1.30 / aq=1:0.80 / nal_hrd=none
Language : English

Audio #1
ID : 2
Format : AC-3
Format/Info : Audio Coding 3
Mode extension : CM (complete main)
Codec ID : A_AC3
Duration : 1h 45mn
Bit rate mode : Constant
Bit rate : 640 Kbps
Channel(s) : 6 channels
Channel positions : Front: L C R, Side: L R, LFE
Sampling rate : 48.0 KHz
Bit depth : 16 bits
Compression mode : Lossy
Stream size : 483 MiB (3%)
Title : Профессиональный дублированный
Language : Russian

Audio #2
ID : 3
Format : AC-3
Format/Info : Audio Coding 3
Mode extension : CM (complete main)
Codec ID : A_AC3
Duration : 1h 45mn
Bit rate mode : Constant
Bit rate : 192 Kbps
Channel(s) : 1 channel
Channel positions : Front: C
Sampling rate : 48.0 KHz
Bit depth : 16 bits
Compression mode : Lossy
Stream size : 145 MiB (1%)
Title : Профессиональный дублированный Варус Видео
Language : Russian

Audio #3
ID : 4
Format : AC-3
Format/Info : Audio Coding 3
Mode extension : CM (complete main)
Codec ID : A_AC3
Duration : 1h 45mn
Bit rate mode : Constant
Bit rate : 192 Kbps
Channel(s) : 2 channels
Channel positions : Front: L R
Sampling rate : 48.0 KHz
Bit depth : 16 bits
Compression mode : Lossy
Stream size : 145 MiB (1%)
Title : Многоголосный закадровый, НТВ
Language : Russian

Audio #4
ID : 5
Format : DTS
Format/Info : Digital Theater Systems
Codec ID : A_DTS
Duration : 1h 45mn
Bit rate mode : Constant
Bit rate : 1 510 Kbps
Channel(s) : 6 channels
Channel positions : Front: L C R, Side: L R, LFE
Sampling rate : 48.0 KHz
Bit depth : 24 bits
Compression mode : Lossy
Stream size : 1.11 GiB (8%)
Title : Авторский закадровый Горчаков
Language : Russian

Audio #5
ID : 6
Format : AC-3
Format/Info : Audio Coding 3
Mode extension : CM (complete main)
Codec ID : A_AC3
Duration : 1h 45mn
Bit rate mode : Constant
Bit rate : 448 Kbps
Channel(s) : 6 channels
Channel positions : Front: L C R, Side: L R, LFE
Sampling rate : 48.0 KHz
Bit depth : 16 bits
Compression mode : Lossy
Stream size : 338 MiB (2%)
Title : Авторский закадровый Гаврилов "НОВЫЙ" вариант
Language : Russian

Audio #6
ID : 7
Format : DTS
Format/Info : Digital Theater Systems
Codec ID : A_DTS
Duration : 1h 45mn
Bit rate mode : Constant
Bit rate : 1 510 Kbps
Channel(s) : 6 channels
Channel positions : Front: L C R, Side: L R, LFE
Sampling rate : 48.0 KHz
Bit depth : 24 bits
Compression mode : Lossy
Stream size : 1.11 GiB (8%)
Title : Авторский закадровый Гаврилов "старый" вариант
Language : Russian

Audio #7
ID : 8
Format : DTS
Format/Info : Digital Theater Systems
Codec ID : A_DTS
Duration : 1h 45mn
Bit rate mode : Constant
Bit rate : 1 510 Kbps
Channel(s) : 6 channels
Channel positions : Front: L C R, Side: L R, LFE
Sampling rate : 48.0 KHz
Bit depth : 24 bits
Compression mode : Lossy
Stream size : 1.11 GiB (8%)
Title : Авторский закадровый Юрий Сербин
Language : Russian

Audio #8
ID : 9
Format : AC-3
Format/Info : Audio Coding 3
Mode extension : CM (complete main)
Codec ID : A_AC3
Duration : 1h 45mn
Bit rate mode : Constant
Bit rate : 384 Kbps
Channel(s) : 6 channels
Channel positions : Front: L C R, Side: L R, LFE
Sampling rate : 48.0 KHz
Bit depth : 16 bits
Compression mode : Lossy
Stream size : 290 MiB (2%)
Title : Авторский закадровый Сергей "Инспектор" Ловаситов
Language : Russian

Audio #9
ID : 10
Format : AC-3
Format/Info : Audio Coding 3
Mode extension : CM (complete main)
Codec ID : A_AC3
Duration : 1h 45mn
Bit rate mode : Constant
Bit rate : 448 Kbps
Channel(s) : 6 channels
Channel positions : Front: L C R, Side: L R, LFE
Sampling rate : 48.0 KHz
Bit depth : 16 bits
Compression mode : Lossy
Stream size : 338 MiB (2%)
Title : Авторский закадровый Михаил Яроцкий
Language : Russian

Свернуть



Про наличие такого же видео ряда в курсе, раздача создавалась для полной коллекции звуковых переводов.


Последний раз редактировалось manhattan sandy 2013-03-04 21:11, всего редактировалось 2 раз(а).
Не в сети
Профиль  
 Добавлено: 2013-03-04 19:44 (спустя 8 часов)
Модератор
Аватара пользователя
Стаж: 8 лет 11 месяцев
Сообщений: 516
Спасибок: 26888
Лайков: 1
Внимание: Для DVD и HD-разделов необходимы развернутые технические данные:
Для HD: Отчет MediaInfo или BDInfo (под спойлером)
Скриншоты, заключенные под спойлер, от 3 штук. Скриншоты должны быть сделаны с раздаваемого материала.
Разрешение скриншота должно строго совпадать с разрешением, указанным в технических данных видео и не должны содержать счетчиков, надписей и т.п., которых нет на видео.
Допустимые форматы: jpg, png.
Для HD и HQRip-ов необходимы скриншоты в формате PNG, для остальных форматов PNG так же рекомендуется.
Не в сети
Профиль  
 Добавлено: 2013-03-04 21:15 (спустя 1 час 30 минут)
Дрeвнeйший торрeнтовщик
Аватара пользователя
Стаж: 9 лет 1 месяц
Возраст: 34
Сообщений: 1486
Спасибок: 4483
Лайков: 13
-=Elis=-
Фото было, видемо потерлось при оформлении. Обновил.
_________________
Я помню http://bt.xi0.info
Не в сети
Профиль  
 Добавлено: 2013-03-04 21:56 (спустя 41 минута)
Top-seeder
Аватара пользователя
Стаж: 8 лет 8 месяцев
Возраст: 26
Сообщений: 665
Спасибок: 2687
Лайков: 2
фильм детства.... "как суку мордой об асфальт" при этой фразе я уши закрывал! все таки 8 лет было)
Не в сети
Профиль  
 Добавлено: 2013-03-04 22:04 (спустя 8 минут)
Дрeвнeйший торрeнтовщик
Аватара пользователя
Стаж: 9 лет 1 месяц
Возраст: 34
Сообщений: 1486
Спасибок: 4483
Лайков: 13
Переводом юности был - в морду или пузо.
Что у тебя дурдом качает 100 кб????
_________________
Я помню http://bt.xi0.info
Не в сети
Профиль  
 Добавлено: 2013-03-08 15:05 (спустя 3 дня)
Аватара пользователя
Стаж: 7 лет 7 месяцев
Сообщений: 8
А раздавать то будем? Третий день нет никого на раздаче!!!
Не в сети
Профиль  
 Добавлено: 2013-03-10 14:14 (спустя 1 день 23 часа)
Дрeвнeйший торрeнтовщик
Аватара пользователя
Стаж: 9 лет 1 месяц
Возраст: 34
Сообщений: 1486
Спасибок: 4483
Лайков: 13
По работе нужен нотер был, все раздача свершилась. Прошу отписаться по сборке.
_________________
Я помню http://bt.xi0.info
Не в сети
Профиль  
Начать новую темуОтветить на тему  [ Сообщений: 7 ] 
Вы не можете начинать темы
Вы не можете отвечать на сообщения
Вы не можете редактировать свои сообщения
Вы не можете удалять свои сообщения