Правила форума

  • В этом разделе создание новых тем Запрещено.
  • Для создания новых тем пользуйтесь Корневым разделом DVD и HD фильмы.
Начать новую темуОтветить на тему  [ Сообщений: 3 ] 
Торрент файл
Размер: 7.06 GB • Зарегистрирован: 6 лет 1 месяц • Статус: Проверено
Скачан: 63 раза • Желающих скачать: 0 • Поблагодарили: 20 раз
 Раздают: 0  |  0 KB/s  ]   Качают: 0  |  0 KB/s  ] 
 Полного источника не было 2 месяца 8 дней 
Сообщения
 Добавлено: 2010-10-20 20:25
Top-seeder
Аватара пользователя
Стаж: 6 лет 7 месяцев
Возраст: 39
Сообщений: 81
Спасибок: 913
Лайков: 5
Последний из Могикан / The Last of the Mohicans

Изображение


Год выпуска: 1992
Страна: США (Morgan Creek Productions)
Жанр: мелодрама, приключения, военный, вестерн
Продолжительность: 01:54:33
Перевод: Профессиональный (многоголосый закадровый) + Профессиональный (дубляж) + Оригинальная звуковая дорожка
Субтитры: Русские, Русские, Английские

Режиссёр: Майкл Манн / Michael Mann
В ролях: Дэниэл Дэй-Льюис, Мэдлин Стоу, Рассел Минс, Эрик Швейг, Джоди Мей, Стивен Вэддингтон, Уэс Студи, Морис Роевз, Патрис Шеро, Эдвард Блэтчфорд
Описание: 1757 год. Англо-французская война за американские колонии в самом разгаре. Дочери полковника Манро пытаются пробраться в осажденный французами английский форт. Им на помощь приходит молодой белый охотник Соколиный Глаз. Между Соколиным Глазом, выросшим среди индейцев племени могикан, и старшей из дочерей, утонченной Корой, вспыхивает взаимное чувство.

Качество: BDRip, 720p
Формат: MKV
Видео кодек: H264 (AVC)
Аудио кодек: AC3 (Dolby Digital)
Видео: MPEG4 Video (H264) 1280x534 23.98fps 6 612 Kbps
Аудио #1: Русский АС3, 6 ch, 48 KHz, 448 kbps [Профессиональный (многоголосый закадровый)]
Аудио #2: Русский АС3, 2 ch, 48 KHz, 256 kbps [Профессиональный (дубляж)]
Аудио #3: Английский DTS, 6 ch, 48 KHz, 1510 kbps [Оригинальная звуковая дорожка]
Субтитры: Русские, Русские, Английские
Изображение
Медиаинфо
General
Complete name : D:\Loads\The.Last.of.the.Mohicans.1992.DDC.720p.BluRay.DTS.x264-HiDt.mkv
Format : Matroska
File size : 7.06 GiB
Duration : 1h 54mn
Overall bit rate : 8 827 Kbps
Encoded date : UTC 2010-10-18 09:59:12
Writing application : mkvmerge v3.0.0 ('Hang up your Hang-Ups') built on Dec 12 2009 15:20:35
Writing library : libebml v0.7.9 + libmatroska v0.8.1

Video
ID : 1
Format : AVC
Format/Info : Advanced Video Codec
Format profile : High@L4.1
Format settings, CABAC : Yes
Format settings, ReFrames : 7 frames
Muxing mode : Container profile=Unknown@4.1
Codec ID : V_MPEG4/ISO/AVC
Duration : 1h 54mn
Bit rate : 6 438 Kbps
Nominal bit rate : 6 612 Kbps
Width : 1 280 pixels
Height : 534 pixels
Display aspect ratio : 2.35:1
Frame rate : 23.976 fps
Resolution : 8 bits
Colorimetry : 4:2:0
Scan type : Progressive
Bits/(Pixel*Frame) : 0.393
Stream size : 5.15 GiB (73%)
Title : x264
Writing library : x264 core 105 r1732 2b04482
Encoding settings : cabac=1 / ref=8 / deblock=1:-3:-3 / analyse=0x3:0x113 / me=tesa / subme=10 / psy=1 / psy_rd=1.00:0.00 / mixed_ref=1 / me_range=64 / chroma_me=1 / trellis=2 / 8x8dct=1 / cqm=0 / deadzone=21,11 / fast_pskip=0 / chroma_qp_offset=-2 / threads=12 / sliced_threads=0 / nr=0 / decimate=1 / interlaced=0 / constrained_intra=0 / bframes=9 / b_pyramid=1 / b_adapt=2 / b_bias=0 / direct=3 / weightb=1 / open_gop=0 / weightp=2 / keyint=250 / keyint_min=23 / scenecut=40 / intra_refresh=0 / rc_lookahead=40 / rc=2pass / mbtree=1 / bitrate=6612 / ratetol=1.0 / qcomp=0.60 / qpmin=10 / qpmax=51 / qpstep=4 / cplxblur=20.0 / qblur=0.5 / ip_ratio=1.40 / aq=1:0.80
Language : English

Audio #1
ID : 2
Format : AC-3
Format/Info : Audio Coding 3
Codec ID : A_AC3
Duration : 1h 54mn
Bit rate mode : Constant
Bit rate : 448 Kbps
Channel(s) : 6 channels
Channel positions : Front: L C R, Surround: L R, LFE
Sampling rate : 48.0 KHz
Stream size : 367 MiB (5%)
Title : AC3 Dolby Digital, 6 ch, ~448.00 kbps - MVO
Language : Russian

Audio #2
ID : 3
Format : AC-3
Format/Info : Audio Coding 3
Codec ID : A_AC3
Duration : 1h 54mn
Bit rate mode : Constant
Bit rate : 256 Kbps
Channel(s) : 2 channels
Channel positions : L R
Sampling rate : 48.0 KHz
Stream size : 210 MiB (3%)
Title : AC3 Dolby Digital, 2 ch, ~256.00 kbps - Дубляж (Варус-Видео)
Language : Russian

Audio #3
ID : 4
Format : DTS
Format/Info : Digital Theater Systems
Codec ID : A_DTS
Duration : 1h 54mn
Bit rate mode : Constant
Bit rate : 1 510 Kbps
Channel(s) : 6 channels
Channel positions : Front: L C R, Surround: L R, LFE
Sampling rate : 48.0 KHz
Resolution : 24 bits
Stream size : 1.21 GiB (17%)
Title : DTS 5.1 1536 Kbps
Language : English

Text #1
ID : 5
Format : UTF-8
Codec ID : S_TEXT/UTF8
Codec ID/Info : UTF-8 Plain Text
Title : Forced
Language : Russian

Text #2
ID : 6
Format : UTF-8
Codec ID : S_TEXT/UTF8
Codec ID/Info : UTF-8 Plain Text
Language : Russian

Text #3
ID : 7
Format : UTF-8
Codec ID : S_TEXT/UTF8
Codec ID/Info : UTF-8 Plain Text
Language : English

Свернуть

Скриншоты
Изображение
Изображение
Изображение
Свернуть
Не в сети
Профиль  
 Добавлено: 2013-04-05 09:18 (спустя 2 года 5 месяцев)
Аватара пользователя
Стаж: 7 лет 8 месяцев
Сообщений: 35
Лайков: 1
:co_ol:
Не в сети
Профиль  
 Добавлено: 2013-04-06 07:28 (спустя 22 часа)
Аватара пользователя
Стаж: 7 лет 2 месяца
Сообщений: 59
Лайков: 5
лучший фильм в своем роде......)))
Не в сети
Профиль  
Начать новую темуОтветить на тему  [ Сообщений: 3 ] 
Вы не можете начинать темы
Вы не можете отвечать на сообщения
Вы не можете редактировать свои сообщения
Вы не можете удалять свои сообщения