Правила форума

  • В этом разделе создание новых тем Запрещено.
  • Для создания новых тем пользуйтесь Корневым разделом DVD и HD фильмы.
Начать новую темуОтветить на тему  [ 1 сообщение ] 
Торрент файл
Размер: 5.75 GB • Зарегистрирован: 10 месяцев • Статус: T Временный релиз
Скачан: 53 раза • Желающих скачать: 0 • Поблагодарили: 15 раз
 Раздают: 0  |  0 KB/s  ]   Качают: 0  |  0 KB/s  ] 
 Полного источника не было 8 часов 
Сообщения
 Добавлено: 2016-01-21 10:27
RG-ELEKTRO
Аватара пользователя
Стаж: 2 года 3 месяца
Сообщений: 7928
Спасибок: 53776
Лайков: 3304
Последний охотник на ведьм / The Last Witch Hunter



Изображение


Год выпуска: 2015
Страна: США (Aperture Entertainment, Atmosphere Entertainment MM, NeoReel)
Жанр: фэнтези, боевик, приключения
Продолжительность: 01:46:26
Перевод: Профессиональный (дубляж) [iTunes]

Режиссёр: Брек Эйснер
В ролях: Вин Дизель, Роуз Лесли, Элайджа Вуд, Оулавюр Дарри Оулафссон, Рина Оуэн, Юли Энгельбрехт, Майкл Кейн, Джозеф Гилган, Исаак Де Банколе, Майкл Халсли
Описание: Современный мир скрывает множество секретов, но самым удивительным из них является то, что ведьмы до сих пор живут среди нас. Это злобные сверхъестественные существа, чья цель — наслать на мир смертоносную чуму. Армии охотников на ведьм сражались с ними на протяжении многих веков. В наши дни остался всего лишь один охотник на ведьм, Колдер, которому однажды удалось убить всемогущую королеву ведьм. Но Колдер еще не знает, что королева воскресла и жаждет отомстить своему убийце…

Изображение Изображение
Качество: BDRip 720p
Формат: MKV
Видео кодек: MPEG-4 AVC
Аудио кодек: AC3
Видео: MPEG-4 AVC, 1280x536, 5830 kbps
Аудио #1: AC3, 6 ch, 384 Кбит/с [Профессиональный (дубляж)]
Аудио #2: английский (DTS, 6 ch, 1509 Кбит/с)
Субтритры: Английские

"MI"
Общее
Уникальный идентификатор : 222634933775792523904260131603464719871 (0xA77DEDB6466ACF7B92BC0EE1455E0DFF)
Полное имя : D:\фильмы\The.Last.Witch.Hunter.2015.BDRip.720p.mkv
Формат : Matroska
Версия формата : Version 4 / Version 2
Размер файла : 5,75 Гбайт
Продолжительность : 1 ч. 46 м.
Общий поток : 7730 Кбит/сек
Название фильма : The.Last.Witch.Hunter.2015.BDRip.720p
Дата кодирования : UTC 2016-01-21 04:08:18
Программа кодирования : mkvmerge v8.3.0 ('Over the Horizon') 64bit
Библиотека кодирования : libebml v1.3.1 + libmatroska v1.4.2

Видео
Идентификатор : 1
Формат : AVC
Формат/Информация : Advanced Video Codec
Профиль формата : High@L4.1
Параметр CABAC формата : Да
Параметр ReFrames формата : 5 кадров
Идентификатор кодека : V_MPEG4/ISO/AVC
Продолжительность : 1 ч. 46 м.
Битрейт : 5830 Кбит/сек
Ширина : 1280 пикселей
Высота : 536 пикселей
Соотношение сторон : 2,40:1
Режим частоты кадров : Постоянный
Частота кадров : 23,976 кадра/сек
Цветовое пространство : YUV
Субдискретизация насыщенности : 4:2:0
Битовая глубина : 8 бит
Тип развёртки : Прогрессивная
Бит/(Пиксели*Кадры) : 0.354
Размер потока : 4,23 Гбайт (74%)
Библиотека кодирования : x264 core 148 r2665 a01e339
Настройки программы : cabac=1 / ref=5 / deblock=1:0:0 / analyse=0x3:0x133 / me=umh / subme=7 / psy=1 / psy_rd=1.00:0.00 / mixed_ref=1 / me_range=16 / chroma_me=1 / trellis=1 / 8x8dct=1 / cqm=0 / deadzone=21,11 / fast_pskip=0 / chroma_qp_offset=-2 / threads=12 / lookahead_threads=2 / sliced_threads=0 / nr=0 / decimate=1 / interlaced=0 / bluray_compat=0 / constrained_intra=0 / bframes=3 / b_pyramid=2 / b_adapt=1 / b_bias=0 / direct=1 / weightb=1 / open_gop=0 / weightp=2 / keyint=250 / keyint_min=23 / scenecut=40 / intra_refresh=0 / rc_lookahead=40 / rc=2pass / mbtree=1 / bitrate=5830 / ratetol=1.0 / qcomp=0.60 / qpmin=0 / qpmax=69 / qpstep=4 / cplxblur=20.0 / qblur=0.5 / ip_ratio=1.40 / aq=1:1.00
Язык : English
Default : Да
Forced : Нет

Аудио #1
Идентификатор : 2
Формат : AC-3
Формат/Информация : Audio Coding 3
Расширение режима : CM (complete main)
Параметр Endianness формата : Big
Идентификатор кодека : A_AC3
Продолжительность : 1 ч. 46 м.
Вид битрейта : Постоянный
Битрейт : 384 Кбит/сек
Каналы : 6 каналов
Расположение каналов : Front: L C R, Side: L R, LFE
Частота : 48,0 КГц
Частота кадров : 31,250 кадров/сек (1536 spf)
Метод сжатия : С потерями
Размер потока : 293 Мбайт (5%)
Язык : Russian
Default : Да
Forced : Нет

Аудио #2
Идентификатор : 3
Формат : DTS
Формат/Информация : Digital Theater Systems
Режим : 16
Параметр Endianness формата : Big
Идентификатор кодека : A_DTS
Продолжительность : 1 ч. 46 м.
Вид битрейта : Постоянный
Битрейт : 1509 Кбит/сек
Каналы : 6 каналов
Расположение каналов : Front: L C R, Side: L R, LFE
Частота : 48,0 КГц
Частота кадров : 93,750 кадра/сек (512 spf)
Битовая глубина : 24 бит
Метод сжатия : С потерями
Размер потока : 1,12 Гбайт (20%)
Язык : English
Default : Нет
Forced : Нет

Текст #1
Идентификатор : 4
Формат : VobSub
Режим смешивания : zlib
Идентификатор кодека : S_VOBSUB
Идентификатор кодека/Информация : Picture based subtitle format used on DVDs
Язык : English
Default : Нет
Forced : Нет

Текст #2
Идентификатор : 5
Формат : VobSub
Режим смешивания : zlib
Идентификатор кодека : S_VOBSUB
Идентификатор кодека/Информация : Picture based subtitle format used on DVDs
Язык : English
Default : Нет
Forced : Нет

Меню
00:00:00.000 : en:00:00:00.000
00:08:02.691 : en:00:08:02.691
00:16:26.235 : en:00:16:26.235
00:25:18.517 : en:00:25:18.517
00:31:01.276 : en:00:31:01.276
00:36:48.248 : en:00:36:48.248
00:43:08.920 : en:00:43:08.920
00:47:09.493 : en:00:47:09.493
00:54:09.329 : en:00:54:09.329
01:00:32.963 : en:01:00:32.963
01:08:02.203 : en:01:08:02.203
01:14:44.104 : en:01:14:44.104
01:21:04.067 : en:01:21:04.067
01:29:15.517 : en:01:29:15.517
01:32:57.322 : en:01:32:57.322
01:37:28.342 : en:01:37:28.342

Свернуть

Скриншоты
Изображение
Изображение
Изображение
Изображение
Свернуть
Изображение


Изображение Изображение
_________________
Не ищите меня в "ВКонтакте", в "Одноклассниках" меня нет - я на трекерах сижу!
Не в сети
Профиль  
Начать новую темуОтветить на тему  [ 1 сообщение ] 
Вы не можете начинать темы
Вы не можете отвечать на сообщения
Вы не можете редактировать свои сообщения
Вы не можете удалять свои сообщения