Правила форума

  • В этом разделе создание новых тем Запрещено.
  • Для создания новых тем пользуйтесь Корневым разделом DVD и HD фильмы.
Начать новую темуОтветить на тему  [ Сообщений: 5 ] 
Торрент файл
Размер: 13.49 GB • Зарегистрирован: 2 года 2 месяца • Статус: Проверено
Скачан: 103 раза • Желающих скачать: 0 • Поблагодарили: 47 раз
 Раздают: 0  |  0 KB/s  ]   Качают: 0  |  0 KB/s  ] 
 Полного источника не было 3 дня 
Сообщения
 Добавлено: 2014-10-06 01:08
Аватара пользователя
Стаж: 9 лет 1 месяц
Сообщений: 7989
Спасибок: 122240
Лайков: 1193
Последний рубеж / Homefront

«На что ты готов ради защиты своей семьи?»

Изображение


Год выпуска: 2013
Страна: Изображение США
Жанр: боевик, криминал
Продолжительность: 01:40:34
Субтитры: Русские, украинские, румынские
Перевод: Профессиональный (полное дублирование) [Лицензия] + Авторский (одноголосый, закадровый) [Андрей Гаврилов] + Авторский (одноголосый, закадровый) [Дмитрий Есарев]


Режиссер: Гэри Фледер
Сценарий: Сильвестр Сталлоне, Чак Логан
Продюсер: Сильвестр Сталлоне, Кевин Кинг Темплтон, Джон Томпсон
Оператор: Тео ван де Санде
Композитор: Марк Айшем

В ролях: Джейсон Стэйтем, Джеймс Франко, Вайнона Райдер, Кейт Босворт, Рашель Лефевр, Фрэнк Грилло, Клэнси Браун, Изабела Видович, Криста Кэмпбелл, Стеффи Гроут

Описание: Фил Брокер — бывший агент из отдела борьбы с наркотиками. Фил переезжает в небольшой город вместе с семьей в надежде забыть прошлое. Но он узнает, что город только со стороны кажется тихим и спокойным местом, на самом деле он кишит насилием, наркотиками, а всем этим заправляет злодей по кличке Аллигатор…

Изображение Изображение

Раздача группы: Изображение

Качество: BDRip (1080p)
Формат: Matroska
Видео: MPEG-4 AVC, 12000 Кбит/с, 1920x800
Аудио №1: Русский (AC3, 48,0 КГц, 6 ch, 640 Кбит/c) Лицензия
Аудио №2: Русский (DTS, 48,0 КГц, 6 ch, 768 Кбит/c) Лицензия
Аудио №3: Русский (AC3, 48,0 КГц, 6 ch, 640 Кбит/c) Андрей Гаврилов
Аудио №4: Русский (DTS, 48,0 КГц, 6 ch, 1510 Кбит/c) Андрей Гаврилов
Аудио №5: Русский (AC3, 48,0 КГц, 6 ch, 640 Кбит/c) Дмитрий Есарев
Аудио №6: Русский (DTS, 48,0 КГц, 6 ch, 1510 Кбит/c) Дмитрий Есарев
Аудио №7: Английский (DTS, 48,0 КГц, 6 ch, 1510 Кбит/c)

MediaInfo
Общее
Уникальный идентификатор : 220201569389135084999726726706795997731 (0xA5A94795C01AC9A598BEBE34DA196A23)
Полное имя : C:\Фильмы\Posledniy.Rubej.2013.D.BDRip.1080p.nnportal.mkv
Формат : Matroska
Версия формата : Version 2
Размер файла : 13,5 Гбайт
Продолжительность : 1 ч. 40 м.
Общий поток : 19,2 Мбит/сек
Название фильма : Poslednij rubezh.(2013).BDRip.1080p.[denis100]
Дата кодирования : UTC 2014-10-05 20:40:30
Программа кодирования : mkvmerge v5.7.0 ('The Whirlwind') built on Jul 29 2012 15:12:35
Библиотека кодирования : libebml v1.2.3 + libmatroska v1.3.0

Видео
Идентификатор : 1
Формат : AVC
Формат/Информация : Advanced Video Codec
Профиль формата : High@L4.1
Параметр CABAC формата : Да
Параметр ReFrames формата : 4 кадра
Идентификатор кодека : V_MPEG4/ISO/AVC
Продолжительность : 1 ч. 40 м.
Битрейт : 12,0 Мбит/сек
Ширина : 1920 пикселей
Высота : 800 пикселей
Соотношение сторон : 2,40:1
Режим частоты кадров : Постоянный
Частота кадров : 23,976 кадра/сек
Цветовое пространство : YUV
Субдискретизация насыщенности : 4:2:0
Битовая глубина : 8 бит
Тип развёртки : Прогрессивная
Бит/(Пиксели*Кадры) : 0.326
Размер потока : 8,16 Гбайт (60%)
Библиотека кодирования : x264 core 138 r2356 a1d3d17
Настройки программы : cabac=1 / ref=4 / deblock=1:-3:-3 / analyse=0x3:0x113 / me=umh / subme=10 / psy=1 / psy_rd=1.00:0.05 / mixed_ref=1 / me_range=32 / chroma_me=1 / trellis=2 / 8x8dct=1 / cqm=0 / deadzone=21,11 / fast_pskip=0 / chroma_qp_offset=-2 / threads=18 / lookahead_threads=1 / sliced_threads=0 / nr=0 / decimate=1 / interlaced=0 / bluray_compat=0 / constrained_intra=0 / bframes=6 / b_pyramid=2 / b_adapt=2 / b_bias=0 / direct=3 / weightb=1 / open_gop=0 / weightp=2 / keyint=250 / keyint_min=23 / scenecut=40 / intra_refresh=0 / rc=2pass / mbtree=0 / bitrate=12013 / ratetol=1.0 / qcomp=0.70 / qpmin=0 / qpmax=69 / qpstep=4 / cplxblur=20.0 / qblur=0.5 / ip_ratio=1.40 / pb_ratio=1.30 / aq=2:0.90
Язык : English
Default : Да
Forced : Нет

Аудио #1
Идентификатор : 2
Формат : AC-3
Формат/Информация : Audio Coding 3
Расширение режима : CM (complete main)
Параметр Endianness формата : Big
Идентификатор кодека : A_AC3
Продолжительность : 1 ч. 40 м.
Вид битрейта : Постоянный
Битрейт : 640 Кбит/сек
Каналы : 6 каналов
Расположение каналов : Front: L C R, Side: L R, LFE
Частота : 48,0 КГц
Битовая глубина : 16 бит
Метод сжатия : С потерями
Размер потока : 460 Мбайт (3%)
Заголовок : AC3 5.1 @ 640 kbps - Dub,R5
Язык : Russian
Default : Да
Forced : Нет

Аудио #2
Идентификатор : 3
Формат : DTS
Формат/Информация : Digital Theater Systems
Режим : 16
Параметр Endianness формата : Big
Идентификатор кодека : A_DTS
Продолжительность : 1 ч. 40 м.
Вид битрейта : Постоянный
Битрейт : 755 Кбит/сек
Каналы : 6 каналов
Расположение каналов : Front: L C R, Side: L R, LFE
Частота : 48,0 КГц
Битовая глубина : 24 бит
Метод сжатия : С потерями
Задержка видео : 11 мс.
Размер потока : 543 Мбайт (4%)
Заголовок : DTS 5.1 @ 768 kbps - Dub, R5
Язык : Russian
Default : Нет
Forced : Нет

Аудио #3
Идентификатор : 4
Формат : AC-3
Формат/Информация : Audio Coding 3
Расширение режима : CM (complete main)
Параметр Endianness формата : Big
Идентификатор кодека : A_AC3
Продолжительность : 1 ч. 40 м.
Вид битрейта : Постоянный
Битрейт : 640 Кбит/сек
Каналы : 6 каналов
Расположение каналов : Front: L C R, Side: L R, LFE
Частота : 48,0 КГц
Битовая глубина : 16 бит
Метод сжатия : С потерями
Размер потока : 460 Мбайт (3%)
Заголовок : Авторский одноголосый (Гаврилов)
Язык : Russian
Default : Нет
Forced : Нет

Аудио #4
Идентификатор : 5
Формат : DTS
Формат/Информация : Digital Theater Systems
Режим : 16
Параметр Endianness формата : Big
Идентификатор кодека : A_DTS
Продолжительность : 1 ч. 40 м.
Вид битрейта : Постоянный
Битрейт : 1509 Кбит/сек
Каналы : 6 каналов
Расположение каналов : Front: L C R, Side: L R, LFE
Частота : 48,0 КГц
Битовая глубина : 24 бит
Метод сжатия : С потерями
Размер потока : 1,06 Гбайт (8%)
Заголовок : DTS 5.1 @ 1509 kbps - AVO, Gavrilov
Язык : Russian
Default : Нет
Forced : Нет

Аудио #5
Идентификатор : 6
Формат : AC-3
Формат/Информация : Audio Coding 3
Расширение режима : CM (complete main)
Параметр Endianness формата : Big
Идентификатор кодека : A_AC3
Продолжительность : 1 ч. 40 м.
Вид битрейта : Постоянный
Битрейт : 640 Кбит/сек
Каналы : 6 каналов
Расположение каналов : Front: L C R, Side: L R, LFE
Частота : 48,0 КГц
Битовая глубина : 16 бит
Метод сжатия : С потерями
Размер потока : 460 Мбайт (3%)
Заголовок : Авторский одноголосый (Есарев)
Язык : Russian
Default : Нет
Forced : Нет

Аудио #6
Идентификатор : 7
Формат : DTS
Формат/Информация : Digital Theater Systems
Режим : 16
Параметр Endianness формата : Big
Идентификатор кодека : A_DTS
Продолжительность : 1 ч. 40 м.
Вид битрейта : Постоянный
Битрейт : 1510 Кбит/сек
Каналы : 6 каналов
Расположение каналов : Front: L C R, Side: L R, LFE
Частота : 48,0 КГц
Битовая глубина : 24 бит
Метод сжатия : С потерями
Размер потока : 1,06 Гбайт (8%)
Заголовок : DTS 5.1 @ 1510 kbps - AVO, Esarev
Язык : Russian
Default : Нет
Forced : Нет

Аудио #7
Идентификатор : 8
Формат : DTS
Формат/Информация : Digital Theater Systems
Режим : 16
Параметр Endianness формата : Big
Идентификатор кодека : A_DTS
Продолжительность : 1 ч. 40 м.
Вид битрейта : Постоянный
Битрейт : 1509 Кбит/сек
Каналы : 6 каналов
Расположение каналов : Front: L C R, Side: L R, LFE
Частота : 48,0 КГц
Битовая глубина : 24 бит
Метод сжатия : С потерями
Задержка видео : 11 мс.
Размер потока : 1,06 Гбайт (8%)
Заголовок : DTS 5.1 @ 1509 kbps
Язык : English
Default : Нет
Forced : Нет

Текст #1
Идентификатор : 9
Формат : UTF-8
Идентификатор кодека : S_TEXT/UTF8
Идентификатор кодека/Информация : UTF-8 Plain Text
Заголовок : Russian
Язык : Russian
Default : Да
Forced : Нет

Текст #2
Идентификатор : 10
Формат : UTF-8
Идентификатор кодека : S_TEXT/UTF8
Идентификатор кодека/Информация : UTF-8 Plain Text
Язык : English
Default : Нет
Forced : Нет

Текст #3
Идентификатор : 11
Формат : UTF-8
Идентификатор кодека : S_TEXT/UTF8
Идентификатор кодека/Информация : UTF-8 Plain Text
Язык : Romanian
Default : Нет
Forced : Нет

Меню
00:00:00.000 : en:00:00:00.000
00:04:55.462 : en:00:04:55.462
00:09:14.095 : en:00:09:14.095
00:14:55.853 : en:00:14:55.853
00:21:42.426 : en:00:21:42.426
00:25:03.001 : en:00:25:03.001
00:31:23.215 : en:00:31:23.215
00:34:04.000 : en:00:34:04.000
00:39:01.089 : en:00:39:01.089
00:45:47.995 : en:00:45:47.995
00:49:29.258 : en:00:49:29.258
00:55:16.480 : en:00:55:16.480
01:01:55.420 : en:01:01:55.420
01:08:56.174 : en:01:08:56.174
01:12:27.635 : en:01:12:27.635
01:16:00.973 : en:01:16:00.973
01:19:15.250 : en:01:19:15.250
01:24:02.621 : en:01:24:02.621
01:29:39.124 : en:01:29:39.124
01:35:16.961 : en:01:35:16.961
Свернуть
Знаете ли вы, что...
Сценарий был написан много лет назад Сильвестром Сталлоне, для него же самого, но так и не был реализован.
Свернуть
Скриншоты
Изображение
Изображение
Изображение
Изображение
Изображение
Изображение
Свернуть
Не в сети
Профиль  
 Добавлено: 2014-10-07 01:58 (спустя 1 день)
Аватара пользователя
Стаж: 9 лет 1 месяц
Сообщений: 2152
Спасибок: 778
Лайков: 14
Судя по рейтингу кинцо так себе, но я посмотрю, чтобы отдать дань уважения Сталлоне и Стэтхему.
_________________
PSN
Изображение
Свернуть
Изображение
Не в сети
Профиль  
 Добавлено: 2014-10-09 13:43 (спустя 2 дня 11 часов)
Аватара пользователя
Стаж: 8 лет 9 месяцев
Сообщений: 1170
Спасибок: 1294
Лайков: 7
L3n1n
со Стетхемом фильмы никогда не отличались высоким рейтингом, но не в этом их очарование)
Не в сети
Профиль  
 Добавлено: 2014-10-10 13:19 (спустя 23 часа)
Аватара пользователя
Стаж: 7 лет 9 месяцев
Возраст: 31
Сообщений: 164
Лайков: 16
L3n1n
Чтобы отдать дань творцам фильма обычно ходят в кино или покупают фильм. А скачать на халяву... Уж себе самому и нам тут не ври... ;;-)))
 dVision, xGOx, Perec и ещё 1-му нравится это.
Не в сети
Профиль  
 Добавлено: 2014-11-03 12:46 (спустя 23 дня)
Стаж: 2 года 5 месяцев
Сообщений: 6
спасибо!
Не в сети
Профиль  
Начать новую темуОтветить на тему  [ Сообщений: 5 ] 
Вы не можете начинать темы
Вы не можете отвечать на сообщения
Вы не можете редактировать свои сообщения
Вы не можете удалять свои сообщения