Правила форума

  • В этом разделе создание новых тем Запрещено.
  • Для создания новых тем пользуйтесь Корневым разделом DVD и HD фильмы.
Начать новую темуОтветить на тему  [ Сообщений: 2 ] 
Торрент файл
Размер: 9.36 GB • Зарегистрирован: 5 лет 3 месяца • Статус: Проверено
Скачан: 84 раза • Желающих скачать: 0 • Поблагодарили: 22 раза
 Раздают: 0  |  0 KB/s  ]   Качают: 0  |  0 KB/s  ] 
 Полного источника не было 1 год 6 месяцев 
Сообщения
 Добавлено: 2011-08-29 12:58
Top-releaser
Аватара пользователя
Стаж: 6 лет 7 месяцев
Сообщений: 2078
Спасибок: 3230
Лайков: 9
Послезавтра / The Day After Tomorrow

Изображение

Год выпуска: 2004
Страна: США
Жанр: фильм-катастрофа, фантастика
Продолжительность: 02:03:40
Перевод:
  • Профессиональный (полное дублирование)
  • Профессиональный (многоголосый закадровый)
  • Профессиональный авторский (одноголосый, закадровый)

Режиссёр: Роланд Эммерих
В ролях: Деннис Куэйд, Джейк Гилленхаал, Эмми Россум, Иэн Хольм, Дэш Михок, Джей О. Сандерс, Села Уорд, Остин Николс
Описание: Что, если все мы находимся накануне нового ледникового периода? Этот вопрос преследует учёного Джека Холла (Дэннис Куэйд). Его исследования показывают, что глобальное потепление может привести к неожиданным и катастрофическим изменениям климата земли. Холл находит доказательства того, что подобные катаклизмы происходили на нашей планете десять тысяч лет тому назад, и предупреждает власти, что то же самое случится теперь, если срочно не начать действовать. Но его предупреждения опоздали. По земному шару прокатывается серия мощных погодных аномалий: град размером в грейпфрут бомбардирует Токио, на Гавайах бушует ураган, на Дели обрушивается снег, а по Лос-Анджелесу один за другим проносятся чудовищные торнадо. Джек предупреждает Белый дом о грядущей катастрофе, но не в силах помочь своему сыну Сэму (Джейк Гилленхаал), оказавшемуся вместе с друзьями в западне в Нью-Йорке, во власти наводнения и холода. Начинается широкомасштабная эвакуация населения США на юг, а Джек спешит на север спасать сына. Но даже Джек не знает, что ещё произойдёт – с ним, с его сыном, со всей планетой…

Масштабный и захватывающий фильм с потрясающими спецэффектами от режиссера "Дня независимости" и «2012» Роланда Эммериха, собравший в кинотеатрах более пятисот миллионов долларов

Раздача группы: Изображение

Качество: BDRip
Формат: MKV
Видео кодек: H.264
Аудио кодек: DTS, AC3
Видео: 1280х544, OAR (2.35:1), 23,976 fps, ~5 613 kbps, High@L4.1, 2 pass
Аудио #1: Русский DTS 5.1 1536 kbps 48kHz (профессиональный, многоголосый закадровый) (П. Гланц и И. Королева)
Аудио #2: Русский AC3 5.1 384 kbps 48kHz (профессиональный, полное дублирование) (с DVD R5)
Аудио #3: Английский DTS 5.1 1536 kbps 48kHz
Аудио #4: Английский Vorbis 2.0 80 kbps 48Khz (комментарии создателей фильма - режиссера Роланда Эммериха и продюсера Марка Гордона)
Аудио #5: Английский Vorbis 2.0 80 kbps 48Khz (комментарии создателей фильма - соавтора сценария Джеффри Нахманоффа, оператора Ули Стайгера, монтажера Дэвида Бреннера и художника Баррри Чюсида)
Аудио #6: Русский DTS 5.1 768 kbps 48kHz (профессиональный, одноголосый закадровый) (перевод В. Королева) - отдельным файлом
Аудио #7: Русский AC3 5.1 448 Kbps 48kHz (профессиональный, многоголосый закадровый) (Tycoon) - отдельным файлом
Субтитры: Русские, Английские

Скриншоты
Изображение

Изображение

Изображение

Изображение
Свернуть

MediaInfo
Общее
Уникальный идентификатор : 174420313154227973374865697917761888660 (0x83382161FAFD34A4AD3B2F3AAC362194)
Полное имя : I:\Послезавтра\The.Day.After.Tomorrow.720p\The.Day.After.Tomorrow.720p.mkv
Формат : Matroska
Версия формата : Version 2
Размер файла : 8,32 Гбайт
Продолжительность : 2 ч. 3 м.
Общий поток : 9628 Кбит/сек
Название фильма : The.Day.After.Tomorrow.720p.BDRip_shartm
Дата кодирования : UTC 2009-11-09 09:38:04
Программа кодирования : mkvmerge v2.9.8 ('C'est le bon') built on Aug 13 2009 12:49:06
Библиотека кодирования : libebml v0.7.7 + libmatroska v0.8.1
Attachment : Yes / Yes / Yes / Yes

Видео
Идентификатор : 1
Формат : AVC
Формат/Информация : Advanced Video Codec
Профиль формата : High@L4.1
Параметр CABAC формата : Да
Параметр ReFrames формата : 10 кадров
Идентификатор кодека : V_MPEG4/ISO/AVC
Продолжительность : 2 ч. 3 м.
Битрейт : 6073 Кбит/сек
Ширина : 1280 пикселей
Высота : 544 пикселя
Соотношение сторон : 2,35:1
Частота кадров : 23,976 кадра/сек
Цветовое пространство : YUV
Субдискретизация насыщенности : 4:2:0
Битовая глубина : 8 бит
Тип развёртки : Прогрессивная
Бит/(Пиксели*Кадры) : 0.364
Размер потока : 5,07 Гбайт (61%)
Библиотека кодирования : x264 core 78 r1318 fe83a90
Настройки программы : cabac=1 / ref=10 / deblock=1:-3:-3 / analyse=0x3:0x113 / me=umh / subme=9 / psy=1 / psy_rd=1.0:0.2 / mixed_ref=1 / me_range=32 / chroma_me=1 / trellis=2 / 8x8dct=1 / cqm=0 / deadzone=21,11 / chroma_qp_offset=-3 / threads=6 / nr=0 / decimate=0 / mbaff=0 / constrained_intra=0 / bframes=6 / b_pyramid=2 / b_adapt=2 / b_bias=0 / direct=3 / wpredb=1 / keyint=240 / keyint_min=24 / scenecut=40 / rc_lookahead=0 / rc=2pass / mbtree=0 / bitrate=6073 / ratetol=1.0 / qcomp=0.60 / qpmin=10 / qpmax=51 / qpstep=4 / cplxblur=20.0 / qblur=0.5 / vbv_maxrate=16500 / vbv_bufsize=16500 / ip_ratio=1.40 / pb_ratio=1.30 / aq=1:0.75
Язык : English

Аудио #1
Идентификатор : 2
Формат : DTS
Формат/Информация : Digital Theater Systems
Идентификатор кодека : A_DTS
Продолжительность : 2 ч. 3 м.
Вид битрейта : Постоянный
Битрейт : 1510 Кбит/сек
Каналы : 6 каналов
Расположение каналов : Front: L C R, Side: L R, LFE
Частота : 48,0 КГц
Битовая глубина : 24 бит
Метод сжатия : С потерями
Размер потока : 1,30 Гбайт (16%)
Заголовок : Russian MVO Glanz+Koroleva DTS 5.1 @ 1.5 Mbit
Язык : Russian

Аудио #2
Идентификатор : 3
Формат : AC-3
Формат/Информация : Audio Coding 3
Расширение режима : CM (complete main)
Идентификатор кодека : A_AC3
Продолжительность : 2 ч. 3 м.
Вид битрейта : Постоянный
Битрейт : 384 Кбит/сек
Каналы : 6 каналов
Расположение каналов : Front: L C R, Side: L R, LFE
Частота : 48,0 КГц
Битовая глубина : 16 бит
Метод сжатия : С потерями
Задержка видео : 32 мс.
Размер потока : 340 Мбайт (4%)
Заголовок : Russian Dubbed AC3 5.1 384 kbps
Язык : Russian

Аудио #3
Идентификатор : 4
Формат : DTS
Формат/Информация : Digital Theater Systems
Идентификатор кодека : A_DTS
Продолжительность : 2 ч. 3 м.
Вид битрейта : Постоянный
Битрейт : 1510 Кбит/сек
Каналы : 6 каналов
Расположение каналов : Front: L C R, Side: L R, LFE
Частота : 48,0 КГц
Битовая глубина : 24 бит
Метод сжатия : С потерями
Размер потока : 1,30 Гбайт (16%)
Заголовок : Original DTS 5.1 @ 1.5 Mbit
Язык : English

Аудио #4
Идентификатор : 5
Формат : Vorbis
Параметр Floor формата : 1
Идентификатор кодека : A_VORBIS
Продолжительность : 2 ч. 3 м.
Вид битрейта : Переменный
Битрейт : 80,0 Кбит/сек
Каналы : 2 канала
Частота : 48,0 КГц
Метод сжатия : С потерями
Размер потока : 70,8 Мбайт (1%)
Заголовок : Commentary 1 - Vorbis 2.0 @ 80 kbps
Библиотека кодирования : libVorbis 1.1.1/1.1.2 (UTC 2005-03-04)
Язык : English

Аудио #5
Идентификатор : 6
Формат : Vorbis
Параметр Floor формата : 1
Идентификатор кодека : A_VORBIS
Продолжительность : 2 ч. 3 м.
Вид битрейта : Переменный
Битрейт : 80,0 Кбит/сек
Каналы : 2 канала
Частота : 48,0 КГц
Метод сжатия : С потерями
Размер потока : 70,8 Мбайт (1%)
Заголовок : Commentary 2 - Vorbis 2.0 @ 80 kbps
Библиотека кодирования : libVorbis 1.1.1/1.1.2 (UTC 2005-03-04)
Язык : English

Текст #1
Идентификатор : 7
Формат : UTF-8
Идентификатор кодека : S_TEXT/UTF8
Идентификатор кодека/Информация : UTF-8 Plain Text
Заголовок : Russian
Язык : Russian

Текст #2
Идентификатор : 8
Формат : ASS
Идентификатор кодека : S_TEXT/ASS
Идентификатор кодека/Информация : Advanced Sub Station Alpha
Метод сжатия : Без потерь
Заголовок : English
Язык : English

Меню
00:00:00.000 : en:Chapter 1
00:03:07.562 : en:Chapter 2
00:06:15.792 : en:Chapter 3
00:09:17.181 : en:Chapter 4
00:12:04.432 : en:Chapter 5
00:15:42.733 : en:Chapter 6
00:18:37.699 : en:Chapter 7
00:20:45.661 : en:Chapter 8
00:22:41.401 : en:Chapter 9
00:24:13.326 : en:Chapter 10
00:31:22.922 : en:Chapter 11
00:38:26.303 : en:Chapter 12
00:42:14.948 : en:Chapter 13
00:48:08.010 : en:Chapter 14
00:51:15.655 : en:Chapter 15
00:54:12.415 : en:Chapter 16
01:03:00.151 : en:Chapter 17
01:06:22.353 : en:Chapter 18
01:08:09.835 : en:Chapter 19
01:11:26.615 : en:Chapter 20
01:13:40.248 : en:Chapter 21
01:17:46.995 : en:Chapter 22
01:20:52.430 : en:Chapter 23
01:24:08.001 : en:Chapter 24
01:27:57.647 : en:Chapter 25
01:29:35.870 : en:Chapter 26
01:32:18.616 : en:Chapter 27
01:38:42.958 : en:Chapter 28
01:41:34.463 : en:Chapter 29
01:46:57.911 : en:Chapter 30
01:50:41.676 : en:Chapter 31
01:55:38.598 : en:Chapter 32
02:03:39.411 : en:Chapter 33
Свернуть
Не в сети
Профиль  
 Добавлено: 2012-04-29 20:51 (спустя 8 месяцев)
Аватара пользователя
Стаж: 5 лет 5 месяцев
Возраст: 23
Сообщений: 484
Спасибок: 1403
Лайков: 1
встаньте на раздачю! :)
Не в сети
Профиль  
Начать новую темуОтветить на тему  [ Сообщений: 2 ] 
Вы не можете начинать темы
Вы не можете отвечать на сообщения
Вы не можете редактировать свои сообщения
Вы не можете удалять свои сообщения