Правила форума

  • В этом разделе создание новых тем Запрещено.
  • Для создания новых тем пользуйтесь Корневым разделом DVD и HD фильмы.
Начать новую темуОтветить на тему  [ Сообщений: 3 ] 
Торрент файл
Размер: 7.76 GB • Зарегистрирован: 4 года • Статус: Проверено
Скачан: 268 раз • Желающих скачать: 0 • Поблагодарили: 68 раз
 Раздают: 1  |  0 KB/s  ]   Качают: 0  |  0 KB/s  ] 
Сообщения
 Добавлено: 2012-11-11 20:09
Аватара пользователя
Стаж: 7 лет 4 месяца
Возраст: 21
Сообщений: 419
Спасибок: 12708
Лайков: 18
Изображение
Послезавтра / The Day After Tomorrow

«Где будешь ты?»

Год выпуска: 2004
Страна: США
Жанр: Фантастика, боевик, триллер, драма, приключения
Продолжительность: 02:03:40
Перевод: Профессиональный (полное дублирование) + Оригинал
Субтитры: Русские, Английские

Режиссер: Роланд Эммерих
Сценарий: Роланд Эммерих, Джеффри Начманофф
Продюсер: Роланд Эммерих, Марк Гордон, Уте Эммерих
Оператор: Юли Штайгер
Композитор: Харальд Клозер, Томас Ванкер

В ролях: Дэннис Куэйд, Джейк Джилленхол, Эмми Россам, Дэш Майок, Джей О. Сандерс, Села Уорд, Остин Николс, Эрджей Смит, Тэмлин Томита, Саша Ройз

Описание: Земля уверенно движется навстречу глобальной экологической катастрофе: в одной части света все живое погибает от засухи, в другой — разбушевавшаяся водная стихия сносит города.

Близость катастрофы вынуждает ученого-климатолога, пытающегося найти способ остановить глобальное потепление, отправиться на поиски пропавшего сына в Нью-Йорк, в котором наступил новый ледниковый период…


Раздача: Изображение


Изображение

Бюджет: $125 000 000
Сборы в США: $186 740 799
Сборы в мире: $542 771 772
Сборы в России: $9 960 000
Мировая премьера: 17 мая 2004
Премьера РФ: 27 мая 2004, «Гемини Киномир»
Релиз на DVD: 9 октября 2008, «Двадцатый Век Фокс СНГ»
Релиз на Blu-Ray: 9 октября 2008, «Двадцатый Век Фокс СНГ»

Качество: BDRip [1080p]
Формат: Matroska
Видео: 1920x816, 7705 Kbps, 23.976 fps
Аудио:
Аудио #1: AC-3, 6 ch, 640 kbps (Rus), 48,0 КГц
Аудио #2: AC-3, 6 ch, 640 kbps (Eng), 48,0 КГц


Знаете ли Вы, что...
  • Режиссер Роланд Эммерих прочитал научно-фантастическую историю «Приближающееся Мировое Наводнение», написанную Артом Беллом и Уитли Стрибером прежде, чем приступить к разработке своего оригинального сценария. Роланд допускает, что события, описанные в этом фильме, могут произойти и на самом деле, причем уже совсем скоро.
  • Во время беседы со зрителями в Денвере, Роланд заявил, что после исторического эпоса «Патриот» он готов к созданию нового фильма, связанного с природными явлениями. Однажды он сидел в непогожий день дома, и у него возникло жгучее желание контролировать погоду своими собственными руками.
  • На костюмах космонавтов орбитальной станции нашиты логотипы российской орбитальной станции «Мир», хотя на год создания и выпуска в прокат фильма МИР`а уже не существовало, а существовала МКС, которая заменила «Мир».
  • Крупный план самолета, потерпевшего крушение, — на самом деле фотография реальной авиакатастрофы, произошедшей 25 января 1990 на Лонг-Айленде, Нью-Йорк.
Свернуть


MediaInfo:
General
Unique ID : 210586860479233684236601243359375806035 (0x9E6D8DD62A2F7E7890275B241FD84E53)
Complete name : Послезавтра.2004.BDRip.1080p.Rus.Eng.mkv
Format : Matroska
Format version : Version 2
File size : 7.76 GiB
Duration : 2h 3mn
Overall bit rate : 8 983 Kbps
Movie name : Послезавтра.2004
Encoded date : UTC 2012-08-15 10:10:27
Writing application : mkvmerge v5.7.0 ('The Whirlwind') built on Aug 7 2012 14:11:40
Writing library : libebml v1.2.3 + libmatroska v1.3.0

Video
ID : 1
Format : AVC
Format/Info : Advanced Video Codec
Format profile : High@L4.1
Format settings, CABAC : Yes
Format settings, ReFrames : 5 frames
Codec ID : V_MPEG4/ISO/AVC
Duration : 2h 3mn
Bit rate : 7 705 Kbps
Width : 1 920 pixels
Height : 816 pixels
Display aspect ratio : 2.35:1
Frame rate : 23.976 fps
Color space : YUV
Chroma subsampling : 4:2:0
Bit depth : 8 bits
Scan type : Progressive
Bits/(Pixel*Frame) : 0.205
Stream size : 6.50 GiB (84%)
Title : Rip by Boriy
Writing library : x264 core 125 r2208 d9d2288
Encoding settings : cabac=1 / ref=5 / deblock=1:-2:-2 / analyse=0x3:0x113 / me=umh / subme=10 / psy=1 / psy_rd=1.00:0.10 / mixed_ref=1 / me_range=32 / chroma_me=1 / trellis=2 / 8x8dct=1 / cqm=0 / deadzone=21,11 / fast_pskip=0 / chroma_qp_offset=-3 / threads=12 / lookahead_threads=2 / sliced_threads=0 / nr=0 / decimate=0 / interlaced=0 / bluray_compat=0 / constrained_intra=0 / bframes=5 / b_pyramid=2 / b_adapt=2 / b_bias=0 / direct=3 / weightb=1 / open_gop=0 / weightp=2 / keyint=240 / keyint_min=23 / scenecut=40 / intra_refresh=0 / rc_lookahead=60 / rc=2pass / mbtree=1 / bitrate=7705 / ratetol=1.0 / qcomp=0.60 / qpmin=0 / qpmax=69 / qpstep=4 / cplxblur=20.0 / qblur=0.5 / ip_ratio=1.40 / aq=1:1.00
Language : English
Default : Yes
Forced : No

Audio #1
ID : 2
Format : AC-3
Format/Info : Audio Coding 3
Mode extension : CM (complete main)
Format settings, Endianness : Big
Codec ID : A_AC3
Duration : 2h 3mn
Bit rate mode : Constant
Bit rate : 640 Kbps
Channel(s) : 6 channels
Channel positions : Front: L C R, Side: L R, LFE
Sampling rate : 48.0 KHz
Bit depth : 16 bits
Compression mode : Lossy
Stream size : 566 MiB (7%)
Title : Дубляж
Language : Russian
Default : Yes
Forced : No

Audio #2
ID : 3
Format : AC-3
Format/Info : Audio Coding 3
Mode extension : CM (complete main)
Format settings, Endianness : Big
Codec ID : A_AC3
Duration : 2h 3mn
Bit rate mode : Constant
Bit rate : 640 Kbps
Channel(s) : 6 channels
Channel positions : Front: L C R, Side: L R, LFE
Sampling rate : 48.0 KHz
Bit depth : 16 bits
Compression mode : Lossy
Stream size : 566 MiB (7%)
Title : Оригинал
Language : English
Default : No
Forced : No

Text #1
ID : 4
Format : UTF-8
Codec ID : S_TEXT/UTF8
Codec ID/Info : UTF-8 Plain Text
Language : Russian
Default : No
Forced : No

Text #2
ID : 5
Format : UTF-8
Codec ID : S_TEXT/UTF8
Codec ID/Info : UTF-8 Plain Text
Language : English
Default : No
Forced : No

Menu
00:00:00.000 : :Chapter 1
00:03:07.562 : :Chapter 2
00:06:15.792 : :Chapter 3
00:09:17.181 : :Chapter 4
00:12:04.432 : :Chapter 5
00:15:42.733 : :Chapter 6
00:18:37.699 : :Chapter 7
00:20:45.661 : :Chapter 8
00:22:41.401 : :Chapter 9
00:24:13.326 : :Chapter 10
00:31:22.922 : :Chapter 11
00:38:26.304 : :Chapter 12
00:42:14.949 : :Chapter 13
00:48:08.010 : :Chapter 14
00:51:15.655 : :Chapter 15
00:54:12.415 : :Chapter 16
01:03:00.151 : :Chapter 17
01:06:22.353 : :Chapter 18
01:08:09.835 : :Chapter 19
01:11:26.615 : :Chapter 20
01:13:40.249 : :Chapter 21
01:17:46.995 : :Chapter 22
01:20:52.430 : :Chapter 23
01:24:08.001 : :Chapter 24
01:27:57.647 : :Chapter 25
01:29:35.870 : :Chapter 26
01:32:18.616 : :Chapter 27
01:38:42.958 : :Chapter 28
01:41:34.463 : :Chapter 29
01:46:57.911 : :Chapter 30
01:50:41.676 : :Chapter 31
01:55:38.598 : :Chapter 32
02:03:39.412 : :Chapter 33
Свернуть


Скриншоты:


Изображение


Изображение


Изображение


Свернуть


Последний раз редактировалось Dimon19995 2012-11-11 20:58, всего редактировалось 1 раз.
 Trex89 нравится это.
Не в сети
Профиль  
 Добавлено: 2012-11-11 20:28 (спустя 18 минут)
Стаж: 5 лет 2 месяца
Сообщений: 10
И зачем людей вводить в заблуждение: год выпуска 2004 указываете, а в названии 2012 (... Эммерих) [2012, фантастика.... :ne_znayu:
Не в сети
Профиль  
 Добавлено: 2012-11-11 20:41 (спустя 13 минут)
Аватара пользователя
Стаж: 5 лет 2 месяца
Сообщений: 111
Спасибок: 71
Лайков: 2
Фильм 2004 года, вы чего людей путаете?
_________________
Изображение
Изображение Avp1991
Не в сети
Профиль  
Начать новую темуОтветить на тему  [ Сообщений: 3 ] 
Вы не можете начинать темы
Вы не можете отвечать на сообщения
Вы не можете редактировать свои сообщения
Вы не можете удалять свои сообщения