Правила форума

  • В этом разделе создание новых тем Запрещено.
  • Для создания новых тем пользуйтесь Корневым разделом DVD и HD фильмы.
Начать новую темуОтветить на тему  [ Сообщений: 5 ] 
Торрент файл
Размер: 4.37 GB • Зарегистрирован: 5 лет 4 месяца • Статус: Проверено
Скачан: 167 раз • Желающих скачать: 0 • Поблагодарили: 24 раза
 Раздают: 0  |  0 KB/s  ]   Качают: 0  |  0 KB/s  ] 
 Полного источника не было 1 год 7 месяцев 
Сообщения
 Добавлено: 2011-08-06 22:48
Top-releaser
Стаж: 7 лет 4 месяца
Возраст: 33
Сообщений: 409
Спасибок: 6402
Лайков: 6
Постал / Postal
«С пушкой по жизни»

Изображение
Год выпуска: 2007
Страна: США, Германия, Канада
Жанр: боевик, триллер, комедия
Продолжительность: 01:42:18
Перевод: Профессиональный (двухголосый) + Авторский (Гоблинa) + Оригинал

Режиссёр: Уве Болл (Uwe Boll)
В ролях: Зак Уорд, Дэйв Фоли, Крис Коппола, Джеки Тон, Дж.К. Симмонс, Ральф Мёллер, Верн Тройер, Крис Спенсер, Ларри Томас, Майкл Паре..

Описание: По мотивам компьютерной трэш-игры Postal. В городе Парадиз строят огромный развлекательный центр, и в один из магазинов завозят партии игрушек Крочи. Эти игрушки в форме задницы становятся объектом пристального внимания двух группировок. Террористы хотят выкрасть их, чтобы зашить в каждую штамм вируса птичьего гриппа. А банда хиппи хочет украсть Крочи, чтобы заработать. Между этими двумя «компаниями» мечется невезучий чувак, у которого в жизни все плохо. В какой-то момент парню все надоедает, и он устраивает в Парадизе «веселую» кровавую баню.


Рейтинг
Kinopoisk.RU: 4.000 (4 991)
Imdb: 4.20 (14 981)
Mpaa: Изображение


Качество: BDRip 720p
Формат: MKV
Видео: AVC; 1280x720 (16:9); 4457 Kbps; 23,976 fps
Аудио 1: 48KHz; AC3; 448 Kbps; CBR; 6 ch - DVO
Аудио 2: 48KHz; AC3; 448 Kbps; CBR; 6 ch - Гоблин
Аудио 3: 48KHz; AC3; 640 Kbps; CBR; 6 ch - ENG
Субтитры: Rus, Eng

Mediainfo
General
Unique ID : 221888137698656418396971873763236800275 (0xA6EE19D29AB12B2AB45F59DFA8306713)
Complete name : Postal.2007.x264.BDRip.mkv
Format : Matroska
Format version : Version 1
File size : 4.37 GiB
Duration : 1h 42mn
Overall bit rate : 6 115 Kbps
Encoded date : UTC 2008-11-14 17:15:22
Writing application : mkvmerge v2.3.0 ('Freak U') built on Sep 8 2008 18:32:16
Writing library : libebml v0.7.7 + libmatroska v0.8.1
Video #1
ID : 1
Format : AVC
Format/Info : Advanced Video Codec
Format profile : High@L4.1
Format settings, CABAC : Yes
Format settings, ReFrames : 4 frames
Codec ID : V_MPEG4/ISO/AVC
Duration : 1h 42mn
Bit rate : 4 575 Kbps
Width : 1 280 pixels
Height : 720 pixels
Display aspect ratio : 16:9
Frame rate : 23.976 fps
Color space : YUV
Chroma subsampling : 4:2:0
Bit depth : 8 bits
Scan type : Progressive
Bits/(Pixel*Frame) : 0.207
Stream size : 3.19 GiB (73%)
Writing library : x264 core 61 r938M 9881ffd
Encoding settings : cabac=1 / ref=4 / deblock=1:-2:-2 / analyse=0x1:0x111 / me=umh / subme=6 / psy_rd=1.0:1.0 / brdo=1 / mixed_ref=1 / me_range=16 / chroma_me=1 / trellis=2 / 8x8dct=0 / cqm=2 / deadzone=21,11 / chroma_qp_offset=-4 / threads=6 / nr=0 / decimate=0 / mbaff=0 / bframes=3 / b_pyramid=1 / b_adapt=1 / b_bias=0 / direct=3 / wpredb=1 / bime=1 / keyint=250 / keyint_min=25 / scenecut=40(pre) / rc=2pass / bitrate=4575 / ratetol=1.0 / rceq='blurCplx^(1-qComp)' / qcomp=1.00 / qpmin=10 / qpmax=51 / qpstep=4 / cplxblur=20.0 / qblur=0.5 / ip_ratio=1.40 / pb_ratio=1.30 / aq=2:1.50
Language : English
Audio #2
ID : 2
Format : AC-3
Format/Info : Audio Coding 3
Mode extension : CM (complete main)
Codec ID : A_AC3
Duration : 1h 42mn
Bit rate mode : Constant
Bit rate : 448 Kbps
Channel(s) : 6 channels
Channel positions : Front: L C R, Side: L R, LFE
Sampling rate : 48.0 KHz
Bit depth : 16 bits
Compression mode : Lossy
Stream size : 328 MiB (7%)
Language : Russian
Audio #3
ID : 3
Format : AC-3
Format/Info : Audio Coding 3
Mode extension : CM (complete main)
Codec ID : A_AC3
Duration : 1h 42mn
Bit rate mode : Constant
Bit rate : 448 Kbps
Channel(s) : 6 channels
Channel positions : Front: L C R, Side: L R, LFE
Sampling rate : 48.0 KHz
Bit depth : 16 bits
Compression mode : Lossy
Stream size : 328 MiB (7%)
Language : Russian
Audio #4
ID : 4
Format : AC-3
Format/Info : Audio Coding 3
Mode extension : CM (complete main)
Codec ID : A_AC3
Duration : 1h 42mn
Bit rate mode : Constant
Bit rate : 640 Kbps
Channel(s) : 6 channels
Channel positions : Front: L C R, Side: L R, LFE
Sampling rate : 48.0 KHz
Bit depth : 16 bits
Compression mode : Lossy
Stream size : 468 MiB (10%)
Language : English
Text #5
ID : 5
Format : UTF-8
Codec ID : S_TEXT/UTF8
Codec ID/Info : UTF-8 Plain Text
Language : Russian
Text #6
ID : 6
Format : UTF-8
Codec ID : S_TEXT/UTF8
Codec ID/Info : UTF-8 Plain Text
Language : English
Свернуть

"Знаете ли Вы, что..."
  • На роль дяди Дэйва Болл хотел взять Рона Перлмана, но в итоге остановил свой выбор на Дэйве Фоли.
Свернуть

Скриншоты
Изображение Изображение Изображение
Свернуть
Не в сети
Профиль  
 Добавлено: 2011-11-08 09:01 (спустя 3 месяца 1 день)
Аватара пользователя
Стаж: 8 лет 1 месяц
Возраст: 25
Сообщений: 39
по возможности встаньте пожалуйста на раздачу после 21-00, за ранее благодарен.
Не в сети
Профиль  
 Добавлено: 2012-09-07 11:56 (спустя 9 месяцев)
Аватара пользователя
Стаж: 7 лет 8 месяцев
Сообщений: 933
Лайков: 50
достойный фильм от уве бола. его неумение снимать фильмы в данном случае выливается в абсурд, который в свою очередь тут переходит в своеобразный юмор.
Не в сети
Профиль  
 Добавлено: 2012-11-08 18:34 (спустя 2 месяца 1 день)
Аватара пользователя
Стаж: 7 лет 4 месяца
Возраст: 24
Сообщений: 510
Спасибок: 4597
Лайков: 2
мда, я посмеялся на счёт девственниц особенно :))
Не в сети
Профиль  
 Добавлено: 2013-03-11 14:52 (спустя 4 месяца 2 дня)
RG-ELEKTRO
Аватара пользователя
Стаж: 4 года 8 месяцев
Возраст: 22
Сообщений: 611
Спасибок: 3459
Лайков: 66
встаньте на раздачу! скорости вообще нет!
Не в сети
Профиль  
Начать новую темуОтветить на тему  [ Сообщений: 5 ] 
Вы не можете начинать темы
Вы не можете отвечать на сообщения
Вы не можете редактировать свои сообщения
Вы не можете удалять свои сообщения