Правила форума

  • В этом разделе создание новых тем Запрещено.
  • Для создания новых тем пользуйтесь Корневым разделом DVD и HD фильмы.
Начать новую темуОтветить на тему  [ Сообщений: 2 ] 
Торрент файл
Размер: 7.05 GB • Зарегистрирован: 4 года • Статус: Проверено
Скачан: 22 раза • Желающих скачать: 0 • Поблагодарили: 8 раз
 Раздают: 0  |  0 KB/s  ]   Качают: 0  |  0 KB/s  ] 
 Полного источника не было 2 года 
Сообщения
 Добавлено: 2012-11-04 14:55
Top-releaser
Аватара пользователя
Стаж: 6 лет 7 месяцев
Сообщений: 2078
Спасибок: 3229
Лайков: 9
Изображение

Потрошители
Repo Men


Год выпуска: 2009
Страна: США
Слоган: «Мы идем к должникам»
Жанр: фантастика, боевик, триллер, драма, криминал
Продолжительность: 01:59:36
Перевод: Профессиональный (полное дублирование)
Режиссер: Мигель Сапочник
Сценарий: Эрик Гарсия, Гаррет Лернер
Продюсер: Скотт Стубер, Эндрю З. Дэвис, Майк Дрэйк, Джон Моне, Мигель Сапочник
Оператор: Энрике Шедьяк
Композитор: Марко Белтрами
В ролях: Джуд Лоу, Форест Уитакер, Алиси Брага, Лив Шрайбер, Кэрис Ван Хаутен, Чандлер Кентербери, Джо Пинг, Лиза Лапира, Тиффани Эспенсен, Иветт Николь Браун, RZA, Вейн Уорд
Бюджет: $32 000 000
Сборы в США: $13 794 835
Сборы в России: $2 179 543
Сборы в мире: $18 409 891
Мировая премьера: 19 марта 2010
Релиз на DVD: 10 августа 2010, «Юниверсал Пикчерс Рус»
Релиз на Blu-ray: 24 августа 2010, «Юниверсал Пикчерс Рус»
Описание: В недалеком будущем искусственные органы будут доступны всем и даже в кредит. Если же человек не в состоянии оплатить долг, то принимаются крайне жесткие меры. Однажды к нему в дом может вломиться Потрошитель, который способен подавить любое сопротивление и должен изъять из него искусственный орган, собственность компании Union. Реми как раз такой - и охотник, и жертва - он Потрошитель, и он же не может оплатить пересадку сердца, а посему вынужден пуститься в бега.
Раздача группы: Изображение

Изображение User Rating: 7.054 (28 904)
Изображение User Rating: 6.30 (55 539)
MPAA: R - Лицам до 17 лет обязательно присутствие взрослого
Качество: BDRip, 720p
Формат: Matroska
Видео: AVC; 1280x544 (2.35:1); 6186 Kbps; 23,976 fps; 0,371 bit/pixel
Аудио №1: Russian; AC3; 384 Kbps; CBR; 6 ch
Аудио №2: English; DTS; 1509 Kbps; CBR; 6 ch; 24 bit
Аудио №3: Vorbis; 64 Kbps; CBR; 2 ch
Аудио №4: Vorbis; 64 Kbps; CBR; 2 ch
Аудио №5: Vorbis; 64 Kbps; CBR; 2 ch

Субтитры: Russian, English

MediaInfo
Общее
Уникальный идентификатор : 235890327231057025276994942744222069507 (0xB176D311286FE50F90F273B4AFA57303)
Полное имя : Z:\WWW\TR-Downloads\Repo.Men.Unrated.720p.[R.G.Daredevil].mkv
Формат : Matroska
Версия формата : Version 2
Размер файла : 7,05 Гбайт
Продолжительность : 1 ч. 59 м.
Режим общего битрейта : Переменный
Общий поток : 8440 Кбит/сек
Название фильма : Repo Men Unrated (2010)
Дата кодирования : UTC 2010-08-12 01:49:40
Программа кодирования : mkvmerge v4.2.0 ('No Talking') built on Jul 28 2010 18:38:23
Библиотека кодирования : libebml v1.0.0 + libmatroska v1.0.0

Видео
Идентификатор : 1
Формат : AVC
Формат/Информация : Advanced Video Codec
Профиль формата : High@L4.1
Параметр CABAC формата : Да
Параметр ReFrames формата : 8 кадров
Идентификатор кодека : V_MPEG4/ISO/AVC
Продолжительность : 1 ч. 59 м.
Битрейт : 6186 Кбит/сек
Номинальный битрейт : 6500 Кбит/сек
Ширина : 1280 пикселей
Высота : 544 пикселя
Соотношение сторон : 2,35:1
Частота кадров : 23,976 кадра/сек
Цветовое пространство : YUV
Субдискретизация насыщенности : 4:2:0
Битовая глубина : 8 бит
Тип развёртки : Прогрессивная
Бит/(Пиксели*Кадры) : 0.371
Размер потока : 5,17 Гбайт (73%)
Библиотека кодирования : x264 core 104 r1683 62997d6
Настройки программы : cabac=1 / ref=8 / deblock=1:-3:-3 / analyse=0x3:0x113 / me=tesa / subme=10 / psy=1 / psy_rd=0.90:0.00 / mixed_ref=1 / me_range=16 / chroma_me=1 / trellis=2 / 8x8dct=1 / cqm=0 / deadzone=21,11 / fast_pskip=0 / chroma_qp_offset=-2 / threads=6 / sliced_threads=0 / nr=0 / decimate=0 / interlaced=0 / constrained_intra=0 / bframes=8 / b_pyramid=2 / b_adapt=2 / b_bias=0 / direct=3 / weightb=1 / open_gop=0 / weightp=2 / keyint=250 / keyint_min=23 / scenecut=40 / intra_refresh=0 / rc=2pass / mbtree=0 / bitrate=6500 / ratetol=1.0 / qcomp=0.60 / qpmin=10 / qpmax=51 / qpstep=4 / cplxblur=20.0 / qblur=0.5 / ip_ratio=1.40 / pb_ratio=1.30 / aq=1:0.70
Язык : English
Default : Да
Forced : Нет

Аудио #1
Идентификатор : 2
Формат : AC-3
Формат/Информация : Audio Coding 3
Расширение режима : CM (complete main)
Параметр Endianness формата : Big
Идентификатор кодека : A_AC3
Продолжительность : 1 ч. 59 м.
Вид битрейта : Постоянный
Битрейт : 384 Кбит/сек
Каналы : 6 каналов
Расположение каналов : Front: L C R, Side: L R, LFE
Частота : 48,0 КГц
Битовая глубина : 16 бит
Метод сжатия : С потерями
Размер потока : 329 Мбайт (5%)
Заголовок : AC3 5.1 @ 384 kbps (dubbed R5)
Язык : Russian
Default : Да
Forced : Нет

Аудио #2
Идентификатор : 3
Формат : DTS
Формат/Информация : Digital Theater Systems
Идентификатор кодека : A_DTS
Продолжительность : 1 ч. 59 м.
Вид битрейта : Постоянный
Битрейт : 1510 Кбит/сек
Каналы : 6 каналов
Расположение каналов : Front: L C R, Side: L R, LFE
Частота : 48,0 КГц
Битовая глубина : 24 бит
Метод сжатия : С потерями
Размер потока : 1,26 Гбайт (18%)
Заголовок : DTS 5.1 @ 1536 kbps
Язык : English
Default : Нет
Forced : Нет

Аудио #3
Идентификатор : 4
Формат : Vorbis
Параметр Floor формата : 1
Идентификатор кодека : A_VORBIS
Продолжительность : 1 ч. 59 м.
Вид битрейта : Переменный
Битрейт : 64,0 Кбит/сек
Каналы : 2 канала
Частота : 48,0 КГц
Метод сжатия : С потерями
Размер потока : 54,8 Мбайт (1%)
Заголовок : Commentary #1
Библиотека кодирования : libVorbis 20090709 (UTC 2009-07-09)
Язык : English
Default : Нет
Forced : Нет

Аудио #4
Идентификатор : 5
Формат : Vorbis
Параметр Floor формата : 1
Идентификатор кодека : A_VORBIS
Продолжительность : 1 ч. 59 м.
Вид битрейта : Переменный
Битрейт : 64,0 Кбит/сек
Каналы : 2 канала
Частота : 48,0 КГц
Метод сжатия : С потерями
Размер потока : 54,8 Мбайт (1%)
Заголовок : Commentary #2
Библиотека кодирования : libVorbis 20090709 (UTC 2009-07-09)
Язык : English
Default : Нет
Forced : Нет

Аудио #5
Идентификатор : 6
Формат : Vorbis
Параметр Floor формата : 1
Идентификатор кодека : A_VORBIS
Продолжительность : 1 ч. 59 м.
Вид битрейта : Переменный
Битрейт : 64,0 Кбит/сек
Каналы : 2 канала
Частота : 48,0 КГц
Метод сжатия : С потерями
Размер потока : 54,8 Мбайт (1%)
Заголовок : Commentary #3
Библиотека кодирования : libVorbis 20090709 (UTC 2009-07-09)
Язык : English
Default : Нет
Forced : Нет

Текст #1
Идентификатор : 7
Формат : UTF-8
Идентификатор кодека : S_TEXT/UTF8
Идентификатор кодека/Информация : UTF-8 Plain Text
Заголовок : Captions
Язык : Russian
Default : Да
Forced : Нет

Текст #2
Идентификатор : 8
Формат : UTF-8
Идентификатор кодека : S_TEXT/UTF8
Идентификатор кодека/Информация : UTF-8 Plain Text
Заголовок : voronine
Язык : Russian
Default : Нет
Forced : Нет

Текст #3
Идентификатор : 9
Формат : UTF-8
Идентификатор кодека : S_TEXT/UTF8
Идентификатор кодека/Информация : UTF-8 Plain Text
Заголовок : voronine coloured
Язык : Russian
Default : Нет
Forced : Нет

Текст #4
Идентификатор : 10
Формат : UTF-8
Идентификатор кодека : S_TEXT/UTF8
Идентификатор кодека/Информация : UTF-8 Plain Text
Заголовок : voronine SDH
Язык : Russian
Default : Нет
Forced : Нет

Текст #5
Идентификатор : 11
Формат : UTF-8
Идентификатор кодека : S_TEXT/UTF8
Идентификатор кодека/Информация : UTF-8 Plain Text
Заголовок : voronine coloured SDH
Язык : Russian
Default : Нет
Forced : Нет

Текст #6
Идентификатор : 12
Формат : UTF-8
Идентификатор кодека : S_TEXT/UTF8
Идентификатор кодека/Информация : UTF-8 Plain Text
Заголовок : stfu
Язык : Russian
Default : Нет
Forced : Нет

Текст #7
Идентификатор : 13
Формат : UTF-8
Идентификатор кодека : S_TEXT/UTF8
Идентификатор кодека/Информация : UTF-8 Plain Text
Язык : English
Default : Нет
Forced : Нет

Меню
00:00:00.000 : en:01. No Need For Violence
00:05:25.659 : en:02. The Union
00:11:04.080 : en:03. A Job's a Job
00:17:51.654 : en:04. Just A Kidney
00:24:19.541 : en:05. Enforcing The Rules
00:27:57.259 : en:06. Knockout #3
00:32:25.068 : en:07. You're A Very Lucky Man
00:41:45.503 : en:08. Past Due
00:48:22.858 : en:09. Two Pieces Of The Same Puzzle
00:52:38.906 : en:10. Robbing Banks
00:56:50.157 : en:11. Artificial Everything
01:02:16.691 : en:12. A Cautionary Tale
01:06:25.481 : en:13. Jumping Credit
01:11:15.313 : en:14. Security Jam
01:21:25.839 : en:15. Can't Go Back
01:27:19.025 : en:16. No Escape
01:34:07.809 : en:17. Wipe The System
01:40:56.050 : en:18. Scanning Out
01:49:25.016 : en:19. Sweet Dreams
01:53:19.459 : en:20. End Titles
Свернуть
"Знаете ли Вы, что..."
  • Фильм снят по роману Эрика Гарсия.
Свернуть
Скриншоты

Изображение
Изображение
Изображение
Изображение
Изображение
Свернуть
Не в сети
Профиль  
 Добавлено: 2012-12-15 21:48 (спустя 1 месяц 11 дней)
Top-releaser
Аватара пользователя
Стаж: 8 лет 9 месяцев
Сообщений: 211
Спасибок: 3857
Лайков: 1
спасибо
_________________
Изображение
Не в сети
Профиль  
Начать новую темуОтветить на тему  [ Сообщений: 2 ] 
Вы не можете начинать темы
Вы не можете отвечать на сообщения
Вы не можете редактировать свои сообщения
Вы не можете удалять свои сообщения