Правила форума

  • В этом разделе создание новых тем Запрещено.
  • Для создания новых тем пользуйтесь Корневым разделом DVD и HD фильмы.
Начать новую темуОтветить на тему  [ Сообщений: 2 ] 
Торрент файл
Размер: 8.35 GB • Зарегистрирован: 4 года 6 месяцев • Статус: Проверено
Скачан: 41 раз • Желающих скачать: 0 • Поблагодарили: 9 раз
 Раздают: 0  |  0 KB/s  ]   Качают: 0  |  0 KB/s  ] 
 Полного источника не было 1 год 10 месяцев 
Сообщения
 Добавлено: 2012-05-23 03:23
Руководитель релиз-группы
Аватара пользователя
Стаж: 7 лет 4 месяца
Возраст: 31
Сообщений: 3407
Спасибок: 46729
Лайков: 5
Изображение

Поворот не туда 4
Wrong Turn 4


Год выпуска: 2011
Страна: США, Германия
Слоган: «These hillbillies are going crazy»
Жанр: ужасы, триллер
Продолжительность: 01:33:20
Перевод: Профессиональный (многоголосый, закадровый)
Режиссер: Деклан О’Брайэн
Сценарий: Деклан О’Брайэн
Продюсер: Ким Тодд, Эрик Фейг, Роберт Кюльзер
Оператор: Майкл Маршалл
Композитор: Клод Фойзи
В ролях: Дин Армстронг, Блейн Кипурда, Теника Дэвис, Дэйв Хармс, Кристен Харрис, Скотт Джонсон, Саманта Кендрик, Арни Макферсон, Дженнифер Пудавик, Дэн Скин
Описание: Группа друзей отправляется на снегоходах на зимнюю прогулку. Во время метели они заблудились и свернули не туда. Встреча с мутантами-каннибалами стала для героев большой неожиданностью...
Изображение
MPAA: Изображение
Раздача группы: Изображение
Качество: BDRip, 1080p
Формат: Matroska
Видео: AVC; 1920x1080 (16:9); 10657 Kbps; 23,976 fps; 0,214 bit/pixel
Аудио №1: AC3; 384 Kbps; CBR; 6 ch Russian
Аудио №2: DTS; 1509 Kbps; CBR; 6 ch; 24 bit English
Субтитры: русские, английские
Изображение
mediainfo
Формат : Matroska
Версия формата : Version 2
Размер файла : 8,35 Гбайт
Продолжительность : 1 ч. 33 м.
Общий поток : 12,8 Мбит/сек
Название фильма : R.G Goliaf
Дата кодирования : UTC 2012-07-14 17:53:38
Программа кодирования : mkvmerge v5.2.0 ('I can't explain') built on Dec 18 2011 18:12:03
Библиотека кодирования : libebml v1.2.3 + libmatroska v1.3.0

Видео
Идентификатор : 1
Формат : AVC
Формат/Информация : Advanced Video Codec
Профиль формата : High@L4.1
Параметр CABAC формата : Да
Параметр ReFrames формата : 4 кадра
Идентификатор кодека : V_MPEG4/ISO/AVC
Продолжительность : 1 ч. 33 м.
Битрейт : 10,7 Мбит/сек
Ширина : 1920 пикселей
Высота : 1080 пикселей
Соотношение сторон : 16:9
Частота кадров : 23,976 кадра/сек
Цветовое пространство : YUV
Субдискретизация насыщенности : 4:2:0
Битовая глубина : 8 бит
Тип развёртки : Прогрессивная
Бит/(Пиксели*Кадры) : 0.214
Размер потока : 6,95 Гбайт (83%)
Заголовок : Wrong Turn 4 2011
Библиотека кодирования : x264 core 114 r1913 5fd3dce
Настройки программы : cabac=1 / ref=4 / deblock=1:-1:-1 / analyse=0x3:0x113 / me=umh / subme=9 / psy=1 / psy_rd=1.00:0.00 / mixed_ref=1 / me_range=16 / chroma_me=1 / trellis=1 / 8x8dct=1 / cqm=0 / deadzone=21,11 / fast_pskip=1 / chroma_qp_offset=-2 / threads=3 / sliced_threads=0 / nr=0 / decimate=1 / interlaced=0 / constrained_intra=0 / bframes=5 / b_pyramid=2 / b_adapt=2 / b_bias=0 / direct=3 / weightb=1 / open_gop=0 / weightp=2 / keyint=250 / keyint_min=23 / scenecut=40 / intra_refresh=0 / rc_lookahead=50 / rc=crf / mbtree=1 / crf=15.5 / qcomp=0.60 / qpmin=0 / qpmax=69 / qpstep=4 / ip_ratio=1.40 / aq=1:1.00

Аудио #1
Идентификатор : 2
Формат : AC-3
Формат/Информация : Audio Coding 3
Расширение режима : CM (complete main)
Идентификатор кодека : A_AC3
Продолжительность : 1 ч. 33 м.
Вид битрейта : Постоянный
Битрейт : 384 Кбит/сек
Каналы : 6 каналов
Расположение каналов : Front: L C R, Side: L R, LFE
Частота : 48,0 КГц
Битовая глубина : 16 бит
Метод сжатия : С потерями
Размер потока : 256 Мбайт (3%)
Язык : Russian

Аудио #2
Идентификатор : 3
Формат : DTS
Формат/Информация : Digital Theater Systems
Идентификатор кодека : A_DTS
Продолжительность : 1 ч. 33 м.
Вид битрейта : Постоянный
Битрейт : 1510 Кбит/сек
Каналы : 6 каналов
Расположение каналов : Front: L C R, Side: L R, LFE
Частота : 48,0 КГц
Битовая глубина : 24 бит
Метод сжатия : С потерями
Размер потока : 1008 Мбайт (12%)
Заголовок : Original EN DTS
Язык : English

Текст #1
Идентификатор : 4
Формат : UTF-8
Идентификатор кодека : S_TEXT/UTF8
Идентификатор кодека/Информация : UTF-8 Plain Text
Заголовок : Subtitles RUS Full RG27
Язык : Russian

Текст #2
Идентификатор : 5
Формат : UTF-8
Идентификатор кодека : S_TEXT/UTF8
Идентификатор кодека/Информация : UTF-8 Plain Text
Заголовок : Subtitles EN Full
Язык : English

Свернуть
Скриншоты

Изображение
Изображение
Изображение
Изображение
Изображение
Свернуть
Не в сети
Профиль  
 Добавлено: 2012-05-26 17:30 (спустя 3 дня)
Аватара пользователя
Стаж: 4 года 11 месяцев
Сообщений: 67
опять глупых америкосов занесло не в тот поворот!!! считаю первую часть самой достойной! эту можно разок посмотреть-ненапрягаясь!!!
Не в сети
Профиль  
Начать новую темуОтветить на тему  [ Сообщений: 2 ] 
Вы не можете начинать темы
Вы не можете отвечать на сообщения
Вы не можете редактировать свои сообщения
Вы не можете удалять свои сообщения