Правила форума

  • В этом разделе создание новых тем Запрещено.
  • Для создания новых тем пользуйтесь Корневым разделом DVD и HD фильмы.
Начать новую темуОтветить на тему  [ 1 сообщение ] 
Торрент файл
Размер: 3.14 GB • Зарегистрирован: 4 года • Статус: Проверено
Скачан: 9 раз • Желающих скачать: 0 • Поблагодарили: 6 раз
 Раздают: 0  |  0 KB/s  ]   Качают: 0  |  0 KB/s  ] 
 Полного источника не было 2 года 11 месяцев 
Сообщения
 Добавлено: 2012-12-01 20:05
Модератор релиз-группы
Аватара пользователя
Стаж: 6 лет 5 месяцев
Возраст: 25
Сообщений: 622
Спасибок: 10257
Лайков: 7
Поворот не туда 5 / Wrong Turn 5

Изображение


Год выпуска: 2012
Страна: США
Жанр: ужасы, триллер
Продолжительность: 1:30:48
Перевод: Профессиональный (многоголосый закадровый)
Субтитры: Русские, Английские

Режиссёр: Деклан О’Брайэн
В ролях: Камилла Арфведсон, Даг Брэдли, Simon Ginty, Оливер Хоар, Роксанна МакКи, Эми Леннокс, Paul Luebke, Дункан Уисби, Радослав Парванов, Джордж Карлуковский
Описание: Маленький городок в Западной Вирджинии проводит ежегодный фестиваль «Горный человек», посвящённый Хэллоуину. Туда направляется группа студентов колледжа, однако они не подозревают, что шумная костюмированная вечеринка с музыкой и выпивкой обернётся для них кровавым кошмаром — на фестиваль направляется семья горных каннибалов.
Изображение 3.8/10 from 711 users
Изображение 4.0/10 from 3,095 users

Качество: BDRip 720p R5
Формат: MKV
Аудио кодек: AC3 (Dolby Digital)
Видео: 3824 kb/s, 1280х720
Аудио #1: Russian: AC3, 384 kb/s (6 ch) / English: AC3, 640 kb/s (6 ch) [Профессиональный (многоголосый закадровый)]
Субтитры: Русские, Английские
BDInfo
Unique ID : 187299571634269600775415320963387603623 (0x8CE895DA07DAD0AD8548013C3E39BAA7)
Complete name : Povorot.ne.tuda.5.2012.P.BDRip.720p.IRONCLUB.mkv
Format : Matroska
Format version : Version 2
File size : 3.14 GiB
Duration : 1h 30mn
Overall bit rate : 4 946 Kbps
Movie name : Wrong.Turn.5.2012.720p.BluRay.DD5.1.x264-EbP
Encoded date : UTC 2012-12-01 10:36:20
Writing application : mkvmerge v4.9.1 ('Ich will') сборка от Jul 11 2011 23:53:15
Writing library : libebml v1.2.1 + libmatroska v1.1.1

Video
ID : 1
Format : AVC
Format/Info : Advanced Video Codec
Format profile : High@L4.0
Format settings, CABAC : Yes
Format settings, ReFrames : 9 frames
Codec ID : V_MPEG4/ISO/AVC
Duration : 1h 30mn
Bit rate : 3 824 Kbps
Width : 1 280 pixels
Height : 720 pixels
Display aspect ratio : 16:9
Frame rate mode : Constant
Frame rate : 23.976 fps
Color space : YUV
Chroma subsampling : 4:2:0
Bit depth : 8 bits
Scan type : Progressive
Bits/(Pixel*Frame) : 0.173
Stream size : 2.43 GiB (77%)
Title : Wrong.Turn.5.2012.720p.BluRay.DD5.1.x264-EbP
Writing library : x264 core 128 r2216 198a7ea
Encoding settings : cabac=1 / ref=9 / deblock=1:-3:-3 / analyse=0x3:0x113 / me=tesa / subme=11 / psy=1 / psy_rd=1.00:0.00 / mixed_ref=1 / me_range=16 / chroma_me=1 / trellis=2 / 8x8dct=1 / cqm=0 / deadzone=21,11 / fast_pskip=0 / chroma_qp_offset=-2 / threads=6 / lookahead_threads=1 / sliced_threads=0 / nr=0 / decimate=0 / interlaced=0 / bluray_compat=0 / constrained_intra=0 / bframes=8 / b_pyramid=2 / b_adapt=2 / b_bias=0 / direct=3 / weightb=1 / open_gop=0 / weightp=2 / keyint=250 / keyint_min=23 / scenecut=40 / intra_refresh=0 / rc=crf / mbtree=0 / crf=16.3 / qcomp=0.60 / qpmin=0 / qpmax=69 / qpstep=4 / ip_ratio=1.40 / pb_ratio=1.30 / aq=1:0.80
Language : English
Default : Yes
Forced : Yes
Matrix coefficients : BT.709

Audio #1
ID : 2
Format : AC-3
Format/Info : Audio Coding 3
Mode extension : CM (complete main)
Format settings, Endianness : Big
Codec ID : A_AC3
Duration : 1h 30mn
Bit rate mode : Constant
Bit rate : 384 Kbps
Channel(s) : 6 channels
Channel positions : Front: L C R, Side: L R, LFE
Sampling rate : 48.0 KHz
Bit depth : 16 bits
Compression mode : Lossy
Stream size : 249 MiB (8%)
Title : DD 5.1 @ 384 kbps - MVO, R5
Language : Russian
Default : Yes
Forced : Yes

Audio #2
ID : 3
Format : AC-3
Format/Info : Audio Coding 3
Mode extension : CM (complete main)
Format settings, Endianness : Big
Codec ID : A_AC3
Duration : 1h 30mn
Bit rate mode : Constant
Bit rate : 640 Kbps
Channel(s) : 6 channels
Channel positions : Front: L C R, Side: L R, LFE
Sampling rate : 48.0 KHz
Bit depth : 16 bits
Compression mode : Lossy
Stream size : 416 MiB (13%)
Title : DD 5.1 @ 640 Kbps
Language : English
Default : No
Forced : No

Text #1
ID : 4
Format : UTF-8
Codec ID : S_TEXT/UTF8
Codec ID/Info : UTF-8 Plain Text
Title : R5
Language : Russian
Default : No
Forced : No

Text #2
ID : 5
Format : UTF-8
Codec ID : S_TEXT/UTF8
Codec ID/Info : UTF-8 Plain Text
Language : English
Default : No
Forced : No

Menu
00:00:00.000 : en:Chapter 1
00:03:35.006 : en:Chapter 2
00:06:41.109 : en:Chapter 3
00:09:45.293 : en:Chapter 4
00:13:38.526 : en:Chapter 5
00:16:56.474 : en:Chapter 6
00:18:38.909 : en:Chapter 7
00:22:32.893 : en:Chapter 8
00:26:03.437 : en:Chapter 9
00:29:27.224 : en:Chapter 10
00:34:49.838 : en:Chapter 11
00:39:19.440 : en:Chapter 12
00:44:08.646 : en:Chapter 13
00:48:06.217 : en:Chapter 14
00:53:11.814 : en:Chapter 15
00:59:35.197 : en:Chapter 16
01:03:13.123 : en:Chapter 17
01:06:56.304 : en:Chapter 18
01:09:44.639 : en:Chapter 19
01:12:32.640 : en:Chapter 20
01:17:43.701 : en:Chapter 21
01:19:31.767 : en:Chapter 22
01:20:46.842 : en:Chapter 23
01:26:21.802 : en:Chapter 24
Свернуть

Скриншоты
Изображение
Изображение
Изображение
Изображение
Свернуть
_________________
Изображение
Не в сети
Профиль  
Начать новую темуОтветить на тему  [ 1 сообщение ] 
Вы не можете начинать темы
Вы не можете отвечать на сообщения
Вы не можете редактировать свои сообщения
Вы не можете удалять свои сообщения