Правила форума

  • В этом разделе создание новых тем Запрещено.
  • Для создания новых тем пользуйтесь Корневым разделом DVD и HD фильмы.
Начать новую темуОтветить на тему  [ 1 сообщение ] 
Торрент файл
Размер: 8.03 GB • Зарегистрирован: 2 года 1 месяц • Статус: Проверено
Скачан: 48 раз • Желающих скачать: 0 • Поблагодарили: 11 раз
 Раздают: 1  |  0 KB/s  ]   Качают: 0  |  0 KB/s  ] 
Сообщения
 Добавлено: 2014-10-21 09:23
RG-ELEKTRO
Аватара пользователя
Стаж: 2 года 3 месяца
Сообщений: 7928
Спасибок: 53776
Лайков: 3304
Поворот не туда 6: Последний курорт / Wrong Turn 6: Last Resort


Изображение

Страна: США
Год выхода: 2014
Жанр: ужасы
Продолжительность: 01:30:30
Озвучивание: Профессиональное (многоголосое) Официальный

Режиссер: Валерий Милев

В ролях: Сэди Кац, Антоний Илот, Акилла Золл, Ролло Скиннер, Билли Эшворт, Роксанна Паллетт, Крис Джарвис, Асен Асенов, Гарри Белчер, Риз Койро

О фильме:
В поисках внезапного и таинственного наследства, Дэнни и его друзья оказываются в Хобб Спрингс, на заброшенном курорте в горах Западной Вирджинии. Вскоре Дэнни узнает, что его родственники, которых он никогда не знал, вели довольно странный образ жизни, основывающийся на каннибализме. Дэнни придется выбирать между друзьями и родственниками.

Скачать: Сэмпл Изображение

Формат: MKV
Качество: BDRip 1080p [CHD]
Видео: 11000 kb/s, 1920x1080
Аудио: Russian: AC3, 192 kb/s (2 ch) / English: DTS, 1510 Kb/s (6 ch)
Субтитры: Russian [Keith], English
Дополнительно: Сохранены оригинальные чаптеры как на Blu-ray



"Media Info"
General
Wrong.Turn.6.Last.Resort.2014.Blu.Ray.1080p.CINEMANIA.mkv
Format : Matroska
Format version : Version 4 / Version 2
File size : 8.03 GiB
Duration : 1h 30mn
Overall bit rate : 12.7 Mbps
Movie name : Release Group CINEMANIA
Encoded date : UTC 2014-10-20 08:24:51
Writing application : mkvmerge v7.2.0 ('On Every Street') 64bit built on Sep 13 2014 15:52:10
Writing library : libebml v1.3.0 + libmatroska v1.4.1

Video
ID : 1
Format : AVC
Format/Info : Advanced Video Codec
Format profile : High@L4.1
Format settings, CABAC : Yes
Format settings, ReFrames : 4 frames
Codec ID : V_MPEG4/ISO/AVC
Duration : 1h 30mn
Bit rate : 11.0 Mbps
Width : 1 920 pixels
Height : 1 080 pixels
Display aspect ratio : 16:9
Frame rate mode : Constant
Frame rate : 23.976 fps
Color space : YUV
Chroma subsampling : 4:2:0
Bit depth : 8 bits
Scan type : Progressive
Bits/(Pixel*Frame) : 0.222
Stream size : 6.80 GiB (85%)
Title : Release Group CINEMANIA
Writing library : x264 core 138 r2358 9e941d1
Encoding settings : cabac=1 / ref=4 / deblock=1:-3:-3 / analyse=0x3:0x113 / me=umh / subme=11 / psy=1 / psy_rd=1.05:0.10 / mixed_ref=1 / me_range=48 / chroma_me=1 / trellis=2 / 8x8dct=1 / cqm=0 / deadzone=21,11 / fast_pskip=0 / chroma_qp_offset=-2 / threads=18 / lookahead_threads=1 / sliced_threads=0 / nr=0 / decimate=1 / interlaced=0 / bluray_compat=0 / constrained_intra=0 / bframes=6 / b_pyramid=2 / b_adapt=2 / b_bias=0 / direct=3 / weightb=1 / open_gop=0 / weightp=2 / keyint=250 / keyint_min=23 / scenecut=40 / intra_refresh=0 / rc_lookahead=40 / rc=2pass / mbtree=0 / bitrate=11023 / ratetol=2.0 / qcomp=0.70 / qpmin=0 / qpmax=69 / qpstep=4 / cplxblur=20.0 / qblur=0.5 / vbv_maxrate=40000 / vbv_bufsize=30000 / nal_hrd=none / ip_ratio=1.40 / pb_ratio=1.30 / aq=2:1.00
Language : English
Default : Yes
Forced : No

Audio #1
ID : 2
Format : AC-3
Format/Info : Audio Coding 3
Mode extension : CM (complete main)
Format settings, Endianness : Big
Codec ID : A_AC3
Duration : 1h 30mn
Bit rate mode : Constant
Bit rate : 192 Kbps
Channel(s) : 2 channels
Channel positions : Front: L R
Sampling rate : 48.0 KHz
Bit depth : 16 bits
Compression mode : Lossy
Stream size : 124 MiB (2%)
Title : IVI
Language : Russian
Default : Yes
Forced : Yes

Audio #2
ID : 3
Format : DTS
Format/Info : Digital Theater Systems
Mode : 16
Format settings, Endianness : Big
Codec ID : A_DTS
Duration : 1h 30mn
Bit rate mode : Constant
Bit rate : 1 509 Kbps
Channel(s) : 6 channels
Channel positions : Front: L C R, Side: L R, LFE
Sampling rate : 48.0 KHz
Bit depth : 24 bits
Compression mode : Lossy
Stream size : 977 MiB (12%)
Language : English
Default : No
Forced : No

Text #2
ID : 5
Format : UTF-8
Codec ID : S_TEXT/UTF8
Codec ID/Info : UTF-8 Plain Text
Title : Keith
Language : Russian
Default : No
Forced : No

Text #3
ID : 6
Format : UTF-8
Codec ID : S_TEXT/UTF8
Codec ID/Info : UTF-8 Plain Text
Language : English
Default : No
Forced : No

Menu
00:00:00.000 : en:00:00:00.000
00:04:51.666 : en:00:04:51.666
00:08:46.568 : en:00:08:46.568
00:12:18.196 : en:00:12:18.196
00:13:59.839 : en:00:13:59.839
00:15:56.164 : en:00:15:56.164
00:17:37.848 : en:00:17:37.848
00:20:10.334 : en:00:20:10.334
00:23:33.245 : en:00:23:33.245
00:27:01.161 : en:00:27:01.161
00:29:46.868 : en:00:29:46.868
00:34:01.289 : en:00:34:01.289
00:36:03.912 : en:00:36:03.912
00:41:20.103 : en:00:41:20.103
00:43:54.090 : en:00:43:54.090
00:47:40.232 : en:00:47:40.232
00:53:11.271 : en:00:53:11.271
00:56:45.027 : en:00:56:45.027
01:00:17.280 : en:01:00:17.280
01:05:47.277 : en:01:05:47.277
01:07:31.464 : en:01:07:31.464
01:09:44.347 : en:01:09:44.347
01:12:59.750 : en:01:12:59.750
01:15:09.088 : en:01:15:09.088
01:17:32.147 : en:01:17:32.147
01:20:38.459 : en:01:20:38.459
01:23:17.993 : en:01:23:17.993
01:26:34.189 : en:01:26:34.189
Свернуть



"Скриншоты"
Изображение
Изображение
Изображение
Свернуть
_________________
Не ищите меня в "ВКонтакте", в "Одноклассниках" меня нет - я на трекерах сижу!
Не в сети
Профиль  
Начать новую темуОтветить на тему  [ 1 сообщение ] 
Вы не можете начинать темы
Вы не можете отвечать на сообщения
Вы не можете редактировать свои сообщения
Вы не можете удалять свои сообщения