Правила форума

  • В этом разделе создание новых тем Запрещено.
  • Для создания новых тем пользуйтесь Корневым разделом DVD и HD фильмы.
Начать новую темуОтветить на тему  [ 1 сообщение ] 
Торрент файл
Размер: 12.69 GB • Зарегистрирован: 5 лет 9 месяцев • Статус: Проверено
Скачан: 201 раз • Желающих скачать: 0 • Поблагодарили: 36 раз
 Раздают: 0  |  0 KB/s  ]   Качают: 0  |  0 KB/s  ] 
 Полного источника не было 4 дня 
Сообщения
 Добавлено: 2011-02-11 15:17
Аватара пользователя
Стаж: 6 лет 8 месяцев
Возраст: 21
Сообщений: 151
Спасибок: 1820
Лайков: 4
Поймай меня, если сможешь / Catch Me If You Can

Изображение


Год выпуска: 2002
Страна: США
Жанр: биография, комедия, драма, криминал
Продолжительность: 02:14:27
Перевод: Профессиональный (полное дублирование)
Русские субтитры: нет
Режиссер: Стивен Спилберг / Steven Spielberg
В ролях: Леонардо ДиКаприо, Том Хэнкс, Кристофер Уокен, Мартин Шин, Натали Бэй, Эми Адамс, Джеймс Бролин, Брайан Хау, Фрэнк Джон Хьюз, Стив Истин
Описание: Фрэнк Эбегнейл успел поработать врачом, адвокатом и пилотом на пассажирской авиалинии — и все это до достижения полного совершеннолетия в 21 год. Мастер в обмане и жульничестве, он также обладал искусством подделки документов, что в конечном счете принесло ему миллионы долларов, которые он получил по фальшивым чекам.
Агент ФБР Карл Хэнрэтти отдал бы все, чтобы схватить Фрэнка и привлечь к ответственности за свои деяния, но Фрэнк всегда опережает его на шаг, заставляя продолжать погоню.

MI
General
ID : 1
Complete name : Catch.Me.if.You.Can.2002.1080.HDTV.x264-RUS.ts
Format : MPEG-TS
File size : 12.7 GiB
Duration : 2h 14mn
Overall bit rate : 13.5 Mbps
Maximum Overall bit rate : 35.5 Mbps

Video
ID : 4113 (0x1011)
Menu ID : 1 (0x1)
Format : AVC
Format/Info : Advanced Video Codec
Format profile : High@L4.1
Format settings, CABAC : Yes
Format settings, ReFrames : 4 frames
Duration : 2h 14mn
Bit rate : 11.7 Mbps
Nominal bit rate : 12.3 Mbps
Width : 1 920 pixels
Height : 1 076 pixels
Display aspect ratio : 16:9
Frame rate : 23.976 fps
Resolution : 8 bits
Colorimetry : 4:2:0
Scan type : Progressive
Bits/(Pixel*Frame) : 0.236
Stream size : 11.0 GiB (86%)
Writing library : x264 core 67 r1130M 8475977
Encoding settings : cabac=1 / ref=4 / deblock=1:-3:-3 / analyse=0x3:0x113 / me=esa / subme=9 / psy_rd=1.3:0.2 / mixed_ref=0 / me_range=24 / chroma_me=1 / trellis=2 / 8x8dct=1 / cqm=0 / deadzone=21,11 / chroma_qp_offset=-3 / threads=6 / nr=0 / decimate=0 / mbaff=0 / bframes=3 / b_pyramid=0 / b_adapt=2 / b_bias=0 / direct=1 / wpredb=1 / keyint=250 / keyint_min=25 / scenecut=40 / rc=2pass / bitrate=12250 / ratetol=1.0 / qcomp=0.60 / qpmin=10 / qpmax=51 / qpstep=4 / cplxblur=20.0 / qblur=0.5 / ip_ratio=1.40 / pb_ratio=1.30 / aq=1:0.9
Language : English

Audio #1
ID : 4352 (0x1100)
Menu ID : 1 (0x1)
Format : AC-3
Format/Info : Audio Coding 3
Duration : 2h 14mn
Bit rate mode : Constant
Bit rate : 448 Kbps
Channel(s) : 6 channels
Channel positions : Front: L C R, Surround: L R, LFE
Sampling rate : 48.0 KHz
Stream size : 431 MiB (3%)
Language : Russian

Audio #2
ID : 4353 (0x1101)
Menu ID : 1 (0x1)
Format : AC-3
Format/Info : Audio Coding 3
Duration : 2h 14mn
Bit rate mode : Constant
Bit rate : 448 Kbps
Channel(s) : 6 channels
Channel positions : Front: L C R, Surround: L R, LFE
Sampling rate : 48.0 KHz
Stream size : 431 MiB (3%)
Language : English
Свернуть

Качество: HDTVRip 1080p
Формат: TS
Видео кодек: H.264
Аудио кодек: AC3
Видео: H264 1920x1080 23.976fps 11.7 Mbps
Аудио: Русский DD 5.1 448 kbps 48 kHz, английский DD 5.1 448 kbps 48 kHz

Скриншоты
Изображение
Изображение
Изображение
Свернуть
Не в сети
Профиль  
Начать новую темуОтветить на тему  [ 1 сообщение ] 
Вы не можете начинать темы
Вы не можете отвечать на сообщения
Вы не можете редактировать свои сообщения
Вы не можете удалять свои сообщения