Правила форума

  • В этом разделе создание новых тем Запрещено.
  • Для создания новых тем пользуйтесь Корневым разделом DVD и HD фильмы.
Начать новую темуОтветить на тему  [ 1 сообщение ] 
Торрент файл
Размер: 6.96 GB • Зарегистрирован: 3 года 5 месяцев • Статус: Проверено
Скачан: 105 раз • Желающих скачать: 0 • Поблагодарили: 24 раза
 Раздают: 0  |  0 KB/s  ]   Качают: 0  |  0 KB/s  ] 
 Полного источника не было 2 года 4 месяца 
Сообщения
 Добавлено: 2013-07-05 16:28
Книголюб
Аватара пользователя
Стаж: 7 лет 2 месяца
Сообщений: 2823
Спасибок: 48825
Лайков: 73
Поймай толстуху, если сможешь
Identity Thief

«Is this the face of a thief?»

Изображение


Год выпуска: 2013
Страна: США (Aggregate Films, DumbDumb, Stuber Productions)
Жанр: Комедия, Криминал
Продолжительность: 01:51:21
Версия фильма: Theatrical / Театральная версия
Перевод: Профессиональный (дубляж)

Режиссёр: Сет Гордон
В ролях: Джейсон Бейтман, Мелисса МакКарти, Аманда Пит, Роберт Патрик, Генезис Родригез, Ти-Ай, Джон Фавро, Моррис Честнат, Джон Чо., Эрик Стоунстрит, Джонатан Бэнкс ...
Описание: Сэнди Бигелоу Паттерсон однажды потерял кредитную карту, а вскоре получает счета на товары, которые никогда не заказывал. И он не понимает, как доказать всем, что ему не надо покупать женскую одежду размера ХХХL и ежедневно завтракать лобстерами во Флориде. Сэнди решает выяснить - кто же украл его личность? Он узнает, что это некто Дайна, которая живет в пригороде Майами. Она транжира и шопоголик. У Сэнди остается всего неделя, чтобы выследить мошенницу, иначе вся его жизнь пойдет прахом...
Рейтинг MPAA: Рейтинг R (Подростки до 17 лет допускаются на фильм только в сопровождении одного из родителей)
Мировая премьера: 7 февраля 2013
Премьера в России: 21 марта 2013, «UPI»
Бюджет: $35 000 000
Изображение 6.2344690

Качество: BDRip 720p
Формат: MKV
Видео кодек: H264 (AVC)
Аудио кодек: DTS
Видео: 1280x544 23.976fps 6 666 Kbps
Аудио #1: 48000Hz 6ch 755 Kbps
Аудио #2: 48000Hz 6ch 1 510 Kbps
MediaInfo
General
Unique ID : 202820995003827634009610726050645397033 (0x9895E71B76F8B53A8CD5DCF2458FCE29)
Complete name : K:\Torrent\Pojmaj tolstuhu.esli smozhesh.mkv
Format : Matroska
Format version : Version 2
File size : 6.96 GiB
Duration : 1h 51mn
Overall bit rate : 8 937 Kbps
Movie name : Pojmaj.tolstuhu.esli.smozhesh(Teatralnaja.versija).2013.D.BDRip.720p.NNM-CLUB
Encoded date : UTC 2013-07-05 09:20:21
Writing application : mkvmerge v2.9.9 ('Tutu') built on Nov 25 2009 21:13:32
Writing library : libebml v0.7.9 + libmatroska v0.8.1

Video
ID : 1
Format : AVC
Format/Info : Advanced Video Codec
Format profile : High@L4.0
Format settings, CABAC : Yes
Format settings, ReFrames : 12 frames
Codec ID : V_MPEG4/ISO/AVC
Duration : 1h 51mn
Bit rate : 6 666 Kbps
Width : 1 280 pixels
Height : 544 pixels
Display aspect ratio : 2.35:1
Frame rate : 23.976 fps
Color space : YUV
Chroma subsampling : 4:2:0
Bit depth : 8 bits
Scan type : Progressive
Bits/(Pixel*Frame) : 0.399
Stream size : 5.06 GiB (73%)
Title : -=Rip by GIU=-
Writing library : x264 core 133 r2334 a3ac64b
Encoding settings : cabac=1 / ref=12 / deblock=1:-3:-3 / analyse=0x3:0x133 / me=umh / subme=11 / psy=1 / psy_rd=1.00:0.50 / mixed_ref=1 / me_range=32 / chroma_me=1 / trellis=2 / 8x8dct=1 / cqm=0 / deadzone=21,11 / fast_pskip=1 / chroma_qp_offset=-4 / threads=12 / lookahead_threads=2 / sliced_threads=0 / nr=0 / decimate=1 / interlaced=0 / bluray_compat=0 / constrained_intra=0 / bframes=8 / b_pyramid=2 / b_adapt=2 / b_bias=0 / direct=3 / weightb=1 / open_gop=0 / weightp=2 / keyint=240 / keyint_min=23 / scenecut=40 / intra_refresh=0 / rc_lookahead=50 / rc=2pass / mbtree=1 / bitrate=6666 / ratetol=1.0 / qcomp=0.80 / qpmin=5 / qpmax=51 / qpstep=4 / cplxblur=20.0 / qblur=0.5 / ip_ratio=1.40 / aq=1:1.00
Language : English
Default : No
Forced : No

Audio #1
ID : 2
Format : DTS
Format/Info : Digital Theater Systems
Codec ID : A_DTS
Duration : 1h 51mn
Bit rate mode : Constant
Bit rate : 755 Kbps
Channel(s) : 6 channels
Channel positions : Front: L C R, Side: L R, LFE
Sampling rate : 48.0 KHz
Bit depth : 24 bits
Compression mode : Lossy
Stream size : 602 MiB (8%)
Title : DTS.768.Kbps (6ch) Russian
Language : Russian
Default : Yes
Forced : No

Audio #2
ID : 3
Format : DTS
Format/Info : Digital Theater Systems
Codec ID : A_DTS
Duration : 1h 51mn
Bit rate mode : Constant
Bit rate : 1 510 Kbps
Channel(s) : 6 channels
Channel positions : Front: L C R, Side: L R, LFE
Sampling rate : 48.0 KHz
Bit depth : 24 bits
Compression mode : Lossy
Stream size : 1.18 GiB (17%)
Title : DTS.1509.Kbps (6ch) English
Language : English
Default : No
Forced : No

Text
ID : 4
Format : UTF-8
Codec ID : S_TEXT/UTF8
Codec ID/Info : UTF-8 Plain Text
Title : English (Full)
Language : English
Default : No
Forced : No

Menu
00:00:00.000 : :Chapter 01
00:06:30.972 : :Chapter 02
00:11:12.671 : :Chapter 03
00:15:40.647 : :Chapter 04
00:24:00.188 : :Chapter 05
00:27:59.469 : :Chapter 06
00:34:22.685 : :Chapter 07
00:40:19.917 : :Chapter 08
00:44:22.534 : :Chapter 09
00:49:59.411 : :Chapter 10
00:54:34.813 : :Chapter 11
01:01:07.455 : :Chapter 12
01:05:34.013 : :Chapter 13
01:09:20.113 : :Chapter 14
01:14:46.773 : :Chapter 15
01:21:15.412 : :Chapter 16
01:28:15.997 : :Chapter 17
01:34:34.585 : :Chapter 18
01:40:49.835 : :Chapter 19
01:47:19.015 : :Chapter 20


Свернуть

Скриншоты
Изображение
Изображение
Изображение
Свернуть

Знаете ли Вы, что...
Во всех машинах, которые берут герои, за исключением первоначально арендованного автомобиля, можно заметить смятую банку Red Bull.


После того как Сэнди и Диана приобретают машину за 200 долларов, сцена их прибытия в Сент-Луис, когда они пересекают мост, на самом деле снята в центре Чаттануги, а самые высокие здания Сент-Луиса добавлены при помощи компьютерной графики.
Когда Сэнди приезжает в Майами (штат Флорида), чтобы поймать Диану в салоне, сцена начинается с воздушной съемки побережья, а затем переходит к ждущему в машине Сэнди. Создается впечатление, что Уинтер-Парк находится рядом с Майами, когда на самом деле между ними около 5 часов езды.
Свернуть
Не в сети
Профиль  
Начать новую темуОтветить на тему  [ 1 сообщение ] 
Вы не можете начинать темы
Вы не можете отвечать на сообщения
Вы не можете редактировать свои сообщения
Вы не можете удалять свои сообщения