Правила форума

  • В этом разделе создание новых тем Запрещено.
  • Для создания новых тем пользуйтесь Корневым разделом DVD и HD фильмы.
Начать новую темуОтветить на тему  [ 1 сообщение ] 
Торрент файл
Размер: 5.74 GB • Зарегистрирован: 5 лет 4 месяца • Статус: Проверено
Скачан: 51 раз • Желающих скачать: 0 • Поблагодарили: 13 раз
 Раздают: 0  |  0 KB/s  ]   Качают: 0  |  0 KB/s  ] 
 Полного источника не было 3 года 2 месяца 
Сообщения
 Добавлено: 2011-08-06 22:42
Top-seeder
Аватара пользователя
Стаж: 9 лет
Сообщений: 1399
Спасибок: 28652
Лайков: 8
Изображение


Перевод: Профессиональный (полное дублирование)
Субтитры: Русские, английские
Формат: BDRip, MKV, H.264, AC3/DTS
Страна: США
Режиссер: Анхель Грация
Жанр: драма, мелодрама, комедия
Продолжительность: 01:42:01
Год выпуска: 2011


В ролях: Камилла Белль, Алекса Вега, Тина Френч, Луис Розалес, Пабло Мартинез Де Веласко, Алексис Айала, Норма Рейна Брито, Адриана Барраза, Каталина Лопез, Хосе Мария Негри

Описание: После внезапной смерти отца-миллионера две избалованные сестрички остаются без копейки денег. Из гламурного Беверли-Хиллз им приходится переехать к своей тетушке в самый бедный район Лос Анджелеса. Как тяжело расставаться с привычками богатеньких девочек! Но в самый острый момент отчаяния сестры найдут настоящую любовь.


Видео: 1280x720p (16:9), 23,976 fps, AVC MPEG-4(H.264), High@L4.1, ~5814 kbps avg, 0.263 bit/pixel
Аудио#1: Русский 48 kHz, AC3, 6 ch, ~384 kbps avg [Профессиональный (полное дублирование)]
Аудио#2: Английский 48 kHz, DTS, 6 ch, ~1510 kbps avg [Оригинал]


MediaInfo
Общее
Уникальный идентификатор : 225176121834922972435063167574540826684 (0xA96757F4E0AEC63F8330570BAA40383C)
Полное имя : D:\Закачки\Prada и чувства.mkv
Формат : Matroska
Размер файла : 5,74 Гбайт
Продолжительность : 1 ч. 46 м.
Общий поток : 7709 Кбит/сек
Название фильма : --SCHUMAHER--
Дата кодирования : UTC 2011-08-01 05:43:55
Программа кодирования : mkvmerge v4.6.0 ('Still Crazy After All These Years') сборка от Mar 10 2011 02:50:32
Библиотека кодирования : libebml v1.2.0 + libmatroska v1.1.0

Видео
Идентификатор : 1
Формат : AVC
Формат/Информация : Advanced Video Codec
Профиль формата : High@L4.1
Параметр CABAC формата : Да
Параметр ReFrames формата : 9 кадров
Идентификатор кодека : V_MPEG4/ISO/AVC
Продолжительность : 1 ч. 46 м.
Битрейт : 5814 Кбит/сек
Ширина : 1280 пикс.
Высота : 720 пикс.
Соотношение сторон : 16:9
Частота кадров : 23,976 кадр/сек
Цветовое пространство : YUV
Подвыборка цветности : 4:2:0
Битовая глубина : 8 бит
Тип развёртки : Прогрессивная
Бит/(Пиксели*Кадры) : 0.263
Размер потока : 4,21 Гбайт (73%)
Библиотека кодирования : x264 core 102 r1666 d058f37
Настройки программы : cabac=1 / ref=9 / deblock=1:-3:-3 / analyse=0x3:0x113 / me=umh / subme=10 / psy=1 / psy_rd=1.05:0.10 / mixed_ref=1 / me_range=32 / chroma_me=1 / trellis=2 / 8x8dct=1 / cqm=2 / deadzone=21,11 / fast_pskip=0 / chroma_qp_offset=-2 / threads=6 / sliced_threads=0 / nr=0 / decimate=1 / interlaced=0 / constrained_intra=0 / bframes=6 / b_pyramid=2 / b_adapt=2 / b_bias=0 / direct=3 / weightb=1 / open_gop=0 / weightp=2 / keyint=250 / keyint_min=25 / scenecut=40 / intra_refresh=0 / rc_lookahead=40 / rc=2pass / mbtree=1 / bitrate=5814 / ratetol=1.0 / qcomp=0.60 / qpmin=10 / qpmax=51 / qpstep=4 / cplxblur=20.0 / qblur=0.5 / vbv_maxrate=50000 / vbv_bufsize=50000 / ip_ratio=1.40 / aq=1:0.80 / nal_hrd=none
Язык : English

Аудио #1
Идентификатор : 2
Формат : AC-3
Формат/Информация : Audio Coding 3
Расширение режима : CM (complete main)
Идентификатор кодека : A_AC3
Продолжительность : 1 ч. 46 м.
Вид битрейта : Постоянный
Битрейт : 384 Кбит/сек
Каналы : 6 каналов
Расположение каналов : Front: L C R, Side: L R, LFE
Частота : 48,0 КГц
Битовая глубина : 16 бит
Метод сжатия : С потерями
Размер потока : 293 Мбайт (5%)
Язык : Russian

Аудио #2
Идентификатор : 3
Формат : DTS
Формат/Информация : Digital Theater Systems
Идентификатор кодека : A_DTS
Продолжительность : 1 ч. 46 м.
Вид битрейта : Постоянный
Битрейт : 1510 Кбит/сек
Каналы : 6 каналов
Расположение каналов : Front: L C R, Side: L R, LFE
Частота : 48,0 КГц
Битовая глубина : 24 бит
Метод сжатия : С потерями
Задержка видео : 11 мс.
Размер потока : 1,12 Гбайт (20%)
Язык : English

Текст #1
Идентификатор : 4
Формат : UTF-8
Идентификатор кодека : S_TEXT/UTF8
Идентификатор кодека/Информация : UTF-8 Plain Text
Язык : Russian

Текст #2
Идентификатор : 5
Формат : UTF-8
Идентификатор кодека : S_TEXT/UTF8
Идентификатор кодека/Информация : UTF-8 Plain Text
Язык : English

Свернуть
Показать скриншоты
ИзображениеИзображениеИзображениеИзображениеИзображениеИзображение
Свернуть
Не в сети
Профиль  
Начать новую темуОтветить на тему  [ 1 сообщение ] 
Вы не можете начинать темы
Вы не можете отвечать на сообщения
Вы не можете редактировать свои сообщения
Вы не можете удалять свои сообщения