Правила форума

  • В этом разделе создание новых тем Запрещено.
  • Для создания новых тем пользуйтесь Корневым разделом DVD и HD фильмы.
Начать новую темуОтветить на тему  [ Сообщений: 2 ] 
Торрент файл
Размер: 6.83 GB • Зарегистрирован: 4 года 4 месяца • Статус: Проверено
Скачан: 83 раза • Желающих скачать: 0 • Поблагодарили: 24 раза
 Раздают: 0  |  0 KB/s  ]   Качают: 0  |  0 KB/s  ] 
 Полного источника не было 1 день 14 часов 
Сообщения
 Добавлено: 2012-07-07 07:40
Top-releaser
Аватара пользователя
Стаж: 6 лет 7 месяцев
Сообщений: 2078
Спасибок: 3230
Лайков: 9
Правила съема: Метод Хитча / Hitch

Изображение


Год выпуска: 2005
Страна: США
Жанр: комедия, мелодрама
Продолжительность: 01:58:00
Перевод: Профессиональный (полное дублирование)

Режиссёр: Энди Теннант
В ролях: Уилл Смит, Ева Мендес, Кевин Джеймс, Эмбер Валлетта
Описание: Согласно рекламным объявлениям, главный герой фильм, сводник и шарлатан, гарантирует, доверившимся ему марш Мендельсона всего после трех свиданий. Однако все его предприятие становится под угрозу провала, когда ему в помощницы поступает симпатичная латиноамериканка.
Он даже и не подозревает, что за маской смазливой студентки-практикантки скрывается амбициозная журналистка, которая хочет сделать себе имя. Тем более что у ловкача-сводника есть свои профессиональные ноу-хау, которые он не хотел бы афишировать...
Изображение
Бюджет: $70 000 000
Сборы в США: $179 495 555
Сборы в мире: + $188 604 865 = $368 100 420
Сборы в России: $3 664 476

Раздача группы: Изображение

Качество: BDRip
Формат: MKV
Видео кодек: H.264
Аудио кодек: AC3, DTS
Видео: 1280x534, 23.976 fps, x264 ~6300 kbps
Аудио #1: Русский AC3 5.1, 48 KHz, 448kbps
Аудио #2: Английский DTS 5.1, 48 KHz, 1536kbps
Субтитры: Русские, Английские

MediaInfo
Общее
Уникальный идентификатор : 232087187181676765484209281643129692761 (0xAE9A5DC92018945DA594E80E55F16259)
Полное имя : Z:\WWW\TR-Downloads\Hitch[R.G.Daredevil].mkv
Формат : Matroska
Версия формата : Version 1
Размер файла : 6,83 Гбайт
Продолжительность : 1 ч. 58 м.
Общий поток : 8262 Кбит/сек
Дата кодирования : UTC 2009-06-17 15:06:44
Программа кодирования : mkvmerge v2.6.0 ('Kelly watch the Stars') built on Mar 24 2009 15:23:17
Библиотека кодирования : libebml v0.7.7 + libmatroska v0.8.1

Видео
Идентификатор : 1
Формат : AVC
Формат/Информация : Advanced Video Codec
Профиль формата : High@L4.1
Параметр CABAC формата : Да
Параметр ReFrames формата : 9 кадров
Идентификатор кодека : V_MPEG4/ISO/AVC
Продолжительность : 1 ч. 58 м.
Битрейт : 6300 Кбит/сек
Ширина : 1280 пикселей
Высота : 534 пикселя
Соотношение сторон : 2,40:1
Частота кадров : 23,976 кадра/сек
Цветовое пространство : YUV
Субдискретизация насыщенности : 4:2:0
Битовая глубина : 8 бит
Тип развёртки : Прогрессивная
Бит/(Пиксели*Кадры) : 0.384
Размер потока : 5,07 Гбайт (74%)
Библиотека кодирования : x264 core 67 r1165M 6841c5e
Настройки программы : cabac=1 / ref=9 / deblock=1:-3:-3 / analyse=0x3:0x113 / me=umh / subme=9 / psy_rd=0.7:0.7 / mixed_ref=1 / me_range=28 / chroma_me=1 / trellis=2 / 8x8dct=1 / cqm=0 / deadzone=21,11 / chroma_qp_offset=-4 / threads=3 / nr=0 / decimate=1 / mbaff=0 / bframes=3 / b_pyramid=1 / b_adapt=2 / b_bias=0 / direct=3 / wpredb=1 / keyint=250 / keyint_min=25 / scenecut=40 / rc=2pass / bitrate=6300 / ratetol=1.0 / qcomp=0.60 / qpmin=10 / qpmax=51 / qpstep=4 / cplxblur=20.0 / qblur=0.5 / ip_ratio=1.40 / pb_ratio=1.30 / aq=1:0.70
Язык : English
Default : Да
Forced : Нет

Аудио #1
Идентификатор : 2
Формат : AC-3
Формат/Информация : Audio Coding 3
Расширение режима : CM (complete main)
Параметр Endianness формата : Big
Идентификатор кодека : A_AC3
Продолжительность : 1 ч. 58 м.
Вид битрейта : Постоянный
Битрейт : 448 Кбит/сек
Каналы : 6 каналов
Расположение каналов : Front: L C R, Side: L R, LFE
Частота : 48,0 КГц
Битовая глубина : 16 бит
Метод сжатия : С потерями
Размер потока : 379 Мбайт (5%)
Заголовок : AC3 5.1 448 kbps
Язык : Russian
Default : Да
Forced : Нет

Аудио #2
Идентификатор : 3
Формат : DTS
Формат/Информация : Digital Theater Systems
Идентификатор кодека : A_DTS
Продолжительность : 1 ч. 58 м.
Вид битрейта : Постоянный
Битрейт : 1510 Кбит/сек
Каналы : 6 каналов
Расположение каналов : Front: L C R, Side: L R, LFE
Частота : 48,0 КГц
Битовая глубина : 24 бит
Метод сжатия : С потерями
Размер потока : 1,25 Гбайт (18%)
Заголовок : DTS 5.1 1536 kbps
Язык : English
Default : Нет
Forced : Нет

Текст #1
Идентификатор : 4
Формат : UTF-8
Идентификатор кодека : S_TEXT/UTF8
Идентификатор кодека/Информация : UTF-8 Plain Text
Язык : Russian
Default : Нет
Forced : Нет

Текст #2
Идентификатор : 5
Формат : UTF-8
Идентификатор кодека : S_TEXT/UTF8
Идентификатор кодека/Информация : UTF-8 Plain Text
Язык : English
Default : Нет
Forced : Нет
Свернуть
Скриншоты
Изображение

Изображение

Изображение

Изображение
Свернуть
Не в сети
Профиль  
 Добавлено: 2012-11-02 23:52 (спустя 3 месяца 26 дней)
Стаж: 4 года 6 месяцев
Сообщений: 71
Спасибок: 2
скорости плиз ребят,заранее спасибо
Не в сети
Профиль  
Начать новую темуОтветить на тему  [ Сообщений: 2 ] 
Вы не можете начинать темы
Вы не можете отвечать на сообщения
Вы не можете редактировать свои сообщения
Вы не можете удалять свои сообщения