Правила форума

  • В этом разделе создание новых тем Запрещено.
  • Для создания новых тем пользуйтесь Корневым разделом DVD и HD фильмы.
Начать новую темуОтветить на тему  [ Сообщений: 5 ] 
Торрент файл
Размер: 12.69 GB • Зарегистрирован: 4 года 4 месяца • Статус: Проверено
Скачан: 49 раз • Желающих скачать: 0 • Поблагодарили: 17 раз
 Раздают: 0  |  0 KB/s  ]   Качают: 0  |  0 KB/s  ] 
 Полного источника не было 2 года 5 месяцев 
Сообщения
 Добавлено: 2012-07-07 08:00
Top-releaser
Аватара пользователя
Стаж: 6 лет 7 месяцев
Сообщений: 2078
Спасибок: 3230
Лайков: 9
Правила съема: Метод Хитча / Hitch

Изображение


Год выпуска: 2005
Страна: США
Жанр: комедия, мелодрама
Продолжительность: 01:58:00
Перевод: Профессиональный (полное дублирование)
Русские субтитры: нет

Режиссёр: Энди Теннант
В ролях: Уилл Смит, Ева Мендес, Кевин Джеймс, Эмбер Валлетта
Описание: Согласно рекламным объявлениям, главный герой фильм, сводник и шарлатан, гарантирует, доверившимся ему марш Мендельсона всего после трех свиданий. Однако все его предприятие становится под угрозу провала, когда ему в помощницы поступает симпатичная латиноамериканка.
Он даже и не подозревает, что за маской смазливой студентки-практикантки скрывается амбициозная журналистка, которая хочет сделать себе имя. Тем более что у ловкача-сводника есть свои профессиональные ноу-хау, которые он не хотел бы афишировать...
Изображение
Бюджет: $70 000 000
Сборы в США: $179 495 555
Сборы в мире: + $188 604 865 = $368 100 420
Сборы в России: $3 664 476

Раздача группы: Изображение

Качество: BDRip, 1080p
Формат: MKV
Видео кодек: H.264
Аудио кодек: AC3, DTS
Видео: 1920x800, x264, 23.976 fps, ~13401 kbps
Аудио #1: Русский AC3, 6ch 448 kbps
Аудио #2: Aнглийский DTS 5.1, 1536 kbps

MediaInfo
Общее
Уникальный идентификатор : 208704868184793219937757797630775149588 (0x9D031873D838271A809FDB62BAE04414)
Полное имя : Z:\WWW\TR-Downloads\Hitch.1080p[R.G.Daredevil].mkv
Формат : Matroska
Версия формата : Version 1
Размер файла : 12,7 Гбайт
Продолжительность : 1 ч. 58 м.
Общий поток : 15,4 Мбит/сек
Название фильма : -=HANSMER=-
Дата кодирования : UTC 2008-03-30 19:27:46
Программа кодирования : mkvmerge v2.2.0 ('Turn It On Again') built on Mar 4 2008 13:20:25
Библиотека кодирования : libebml v0.7.7 + libmatroska v0.8.1

Видео
Идентификатор : 1
Формат : AVC
Формат/Информация : Advanced Video Codec
Профиль формата : High@L4.1
Параметр CABAC формата : Да
Параметр ReFrames формата : 6 кадров
Идентификатор кодека : V_MPEG4/ISO/AVC
Продолжительность : 1 ч. 58 м.
Битрейт : 13,4 Мбит/сек
Ширина : 1920 пикселей
Высота : 800 пикселей
Соотношение сторон : 2,40:1
Частота кадров : 23,976 кадра/сек
Цветовое пространство : YUV
Субдискретизация насыщенности : 4:2:0
Битовая глубина : 8 бит
Тип развёртки : Прогрессивная
Бит/(Пиксели*Кадры) : 0.364
Размер потока : 10,8 Гбайт (85%)
Заголовок : Hitch.2005.1080p.BluRay.DTS.x264-HDV
Библиотека кодирования : x264 core 58 r771M b6a966a
Настройки программы : cabac=1 / ref=6 / deblock=1:-3:-3 / analyse=0x3:0x113 / me=umh / subme=7 / me-prepass=0 / brdo=1 / mixed_ref=1 / me_range=16 / chroma_me=1 / trellis=0 / 8x8dct=1 / cqm=2 / deadzone=6,4 / chroma_qp_offset=0 / threads=3 / nr=0 / decimate=0 / mbaff=0 / bframes=3 / b_pyramid=1 / b_adapt=1 / b_bias=0 / direct=3 / wpredb=1 / bime=1 / keyint=250 / keyint_min=25 / scenecut=40(pre) / rc=2pass / bitrate=13401 / ratetol=1.0 / rceq='blurCplx^(1-qComp)' / qcomp=1.00 / qpmin=10 / qpmax=51 / qpstep=4 / cplxblur=20.0 / qblur=0.5 / ip_ratio=1.40 / pb_ratio=1.30 / aq=1:0.5:13.0
Язык : English
Default : Да
Forced : Нет

Аудио #1
Идентификатор : 2
Формат : AC-3
Формат/Информация : Audio Coding 3
Расширение режима : CM (complete main)
Параметр Endianness формата : Big
Идентификатор кодека : A_AC3
Продолжительность : 1 ч. 58 м.
Вид битрейта : Постоянный
Битрейт : 448 Кбит/сек
Каналы : 6 каналов
Расположение каналов : Front: L C R, Side: L R, LFE
Частота : 48,0 КГц
Битовая глубина : 16 бит
Метод сжатия : С потерями
Размер потока : 379 Мбайт (3%)
Язык : Russian
Default : Да
Forced : Нет

Аудио #2
Идентификатор : 3
Формат : DTS
Формат/Информация : Digital Theater Systems
Идентификатор кодека : A_DTS
Продолжительность : 1 ч. 58 м.
Вид битрейта : Постоянный
Битрейт : 1510 Кбит/сек
Каналы : 6 каналов
Расположение каналов : Front: L C R, Side: L R, LFE
Частота : 48,0 КГц
Битовая глубина : 24 бит
Метод сжатия : С потерями
Размер потока : 1,25 Гбайт (10%)
Язык : English
Default : Нет
Forced : Нет

Текст #1
Идентификатор : 4
Формат : UTF-8
Идентификатор кодека : S_TEXT/UTF8
Идентификатор кодека/Информация : UTF-8 Plain Text
Язык : English
Default : Да
Forced : Нет

Текст #2
Идентификатор : 5
Формат : UTF-8
Идентификатор кодека : S_TEXT/UTF8
Идентификатор кодека/Информация : UTF-8 Plain Text
Язык : Czech
Default : Нет
Forced : Нет

Текст #3
Идентификатор : 6
Формат : UTF-8
Идентификатор кодека : S_TEXT/UTF8
Идентификатор кодека/Информация : UTF-8 Plain Text
Язык : Finnish
Default : Нет
Forced : Нет

Текст #4
Идентификатор : 7
Формат : UTF-8
Идентификатор кодека : S_TEXT/UTF8
Идентификатор кодека/Информация : UTF-8 Plain Text
Язык : Greek
Default : Нет
Forced : Нет

Текст #5
Идентификатор : 8
Формат : UTF-8
Идентификатор кодека : S_TEXT/UTF8
Идентификатор кодека/Информация : UTF-8 Plain Text
Язык : Hungarian
Default : Нет
Forced : Нет

Текст #6
Идентификатор : 9
Формат : UTF-8
Идентификатор кодека : S_TEXT/UTF8
Идентификатор кодека/Информация : UTF-8 Plain Text
Язык : Portuguese
Default : Нет
Forced : Нет

Текст #7
Идентификатор : 10
Формат : UTF-8
Идентификатор кодека : S_TEXT/UTF8
Идентификатор кодека/Информация : UTF-8 Plain Text
Язык : Romanian
Default : Нет
Forced : Нет
Свернуть
Скриншоты
Изображение

Изображение

Изображение

Изображение
Свернуть
Не в сети
Профиль  
 Добавлено: 2012-07-07 10:08 (спустя 2 часа 7 минут)
Аватара пользователя
Стаж: 7 лет 11 месяцев
Сообщений: 995
Лайков: 74
мало!!! еще давай штук пяток!!!
Не в сети
Профиль  
 Добавлено: 2012-07-07 11:16 (спустя 1 час 8 минут)
Top-releaser
Аватара пользователя
Стаж: 6 лет 7 месяцев
Сообщений: 2078
Спасибок: 3230
Лайков: 9
Evil_Knievel
Что мало?
Не в сети
Профиль  
 Добавлено: 2012-07-07 12:55 (спустя 1 час 38 минут)
Аватара пользователя
Стаж: 7 лет 8 месяцев
Сообщений: 45
он наверно имел виду скриншотов
Не в сети
Профиль  
 Добавлено: 2012-07-07 20:27 (спустя 7 часов)
Console V.I.P.
Аватара пользователя
Стаж: 9 лет
Сообщений: 1453
Спасибок: 690
Лайков: 12
Вот спасибо! Очень давно хочу это кино в коллекцию. На диске дороговат, хоть рип будет :)
_________________
МАСТЕР ПО ИГРОВЫМ КОНСОЛЯМ
ПРОДАЖА И МОДЕРНИЗАЦИЯ ИГРОВЫХ КОНСОЛЕЙ

УСЛУГИ И КОНТАКТЫ (нажать чтобы посмотреть)
icq: 378004868 тел: 89049149337
Не в сети
Профиль  
Начать новую темуОтветить на тему  [ Сообщений: 5 ] 
Вы не можете начинать темы
Вы не можете отвечать на сообщения
Вы не можете редактировать свои сообщения
Вы не можете удалять свои сообщения