Правила форума

  • В этом разделе создание новых тем Запрещено.
  • Для создания новых тем пользуйтесь Корневым разделом DVD и HD фильмы.
Начать новую темуОтветить на тему  [ Сообщений: 5 ] 
Торрент файл
Размер: 16.55 GB • Зарегистрирован: 5 лет 1 месяц • Статус: Проверено
Скачан: 57 раз • Желающих скачать: 0 • Поблагодарили: 7 раз
 Раздают: 0  |  0 KB/s  ]   Качают: 0  |  0 KB/s  ] 
 Полного источника не было 2 года 8 месяцев 
Сообщения
 Добавлено: 2011-10-24 10:11
Модератор релиз-группы
Аватара пользователя
Стаж: 9 лет 1 месяц
Возраст: 97
Сообщений: 11659
Спасибок: 6530
Лайков: 269
Предел риска / Margin Call
«Как спасти деньги?»

Изображение


Год выпуска: 2011
Страна: сша
Жанр: триллер, драма
Продолжительность: 01:46:24
Перевод: Профессиональный (дубляж)

Режиссёр: Джей Си Чендор
В ролях: Кевин Спейси , Пол Беттани , Джереми Айронс , Закари Куинто , Пенн Бэджли , Саймон Бейкер , Мэри МакДоннелл , Деми Мур , Стенли Туччи , Аасиф Мандви , Эшли Уильямс , Сьюзэн Блэкуелл
Описание: Сентябрь 2008 года. Мировой экономический кризис уже начался, но Америка еще не знает, какая катастрофа ждет впереди, и только группа топ-менеджеров на Уолл-Стрит ищет рецепт спасения. Это были самые страшные часы в их жизнию
Сотрудник одного из крупнейших инвестиционных банков с помощью новейшей программы рыночного анализа получает ошеломляющий прогноз - акции упадут, рынок рухнет, банк потеряет все. Утром следующего дня он попадает под сокращение и перед уходом передает флэшку с опасной информацией своему бывшему помощнику. К вечеру лучшие аналитики банка, проверив эти вычисления, осознали ужасную перспективу: крах неминуем. Теперь они стоят перед выбором: начать срочный сброс акций, что оставит и крупных акционеров во всем мире, и миллионы рядовых вкладчиков ни с чем - или ждать развития событий, что чревато потерей вообще всего. Решать нужно здесь и сейчас. На кону - огромные деньги и будущее каждого. В эту ночь у риска нет предела.


Изображение
Качество: BDRemux
Формат: mkv
Видео кодек: MPEG-4
Аудио кодек: AC3 (Dolby Digital)
Видео: MPEG-4 AVC 1920x1080, 23.976 fps, ~ 21.8 Mb/s
Аудио #1: Dolby AC3, 48000Hz, 6ch, 384 Kbps [Профессиональный (дубляж)]
Скриншоты
Изображение

Изображение

Изображение

Изображение
Свернуть

Mi
Format : Matroska
Format version : Version 2
File size : 16.5 GiB
Duration : 1h 46mn
Overall bit rate : 22.3 Mbps
Encoded date : UTC 2011-10-24 06:39:44
Writing application : mkvmerge v5.0.1 ('Es ist Sommer') built on Oct 9 2011 11:55:43
Writing library : libebml v1.2.2 + libmatroska v1.3.0

Video
ID : 1
Format : AVC
Format/Info : Advanced Video Codec
Format profile : High@L4.1
Format settings, CABAC : Yes
Format settings, ReFrames : 3 frames
Format settings, GOP : M=3, N=18
Codec ID : V_MPEG4/ISO/AVC
Duration : 1h 46mn
Bit rate mode : Variable
Bit rate : 21.4 Mbps
Maximum bit rate : 35.0 Mbps
Width : 1 920 pixels
Height : 1 080 pixels
Display aspect ratio : 16:9
Frame rate : 24.000 fps
Standard : NTSC
Color space : YUV
Chroma subsampling : 4:2:0
Bit depth : 8 bits
Scan type : Progressive
Bits/(Pixel*Frame) : 0.431
Stream size : 15.9 GiB (96%)
Color primaries : BT.709-5, BT.1361, IEC 61966-2-4, SMPTE RP177
Transfer characteristics : BT.709-5, BT.1361
Matrix coefficients : BT.709-5, BT.1361, IEC 61966-2-4 709, SMPTE RP177

Audio
ID : 2
Format : AC-3
Format/Info : Audio Coding 3
Mode extension : CM (complete main)
Codec ID : A_AC3
Duration : 1h 46mn
Bit rate mode : Constant
Bit rate : 384 Kbps
Channel(s) : 6 channels
Channel positions : Front: L C R, Side: L R, LFE
Sampling rate : 48.0 KHz
Bit depth : 16 bits
Compression mode : Lossy
Stream size : 292 MiB (2%)
Language : Russian

Свернуть


Последний раз редактировалось Артурыч 2011-10-24 16:40, всего редактировалось 1 раз.
Не в сети
Профиль  
 Добавлено: 2011-10-24 13:22 (спустя 3 часа)
Руководитель релиз-группы
Аватара пользователя
Стаж: 7 лет 9 месяцев
Возраст: 22
Сообщений: 4057
Спасибок: 7977
Лайков: 7

Артурыч:

Год выпуска: 2001
ошибочка :)
Не в сети
Профиль  
 Добавлено: 2011-10-24 16:41 (спустя 3 часа)
Модератор релиз-группы
Аватара пользователя
Стаж: 9 лет 1 месяц
Возраст: 97
Сообщений: 11659
Спасибок: 6530
Лайков: 269
спс !
бывает, что ж :)
_________________
Изображение
Не в сети
Профиль  
 Добавлено: 2011-10-24 21:01 (спустя 4 часа)
Стаж: 5 лет 7 месяцев
Сообщений: 2
Сайлер! Брови!
Не в сети
Профиль  
 Добавлено: 2011-10-25 22:57 (спустя 1 день 1 час)
Стаж: 9 лет 1 месяц
Сообщений: 31
Спасибок: 34
Какой же это триллер или драма?
Так конечно можно посмотреть.
Не в сети
Профиль  
Начать новую темуОтветить на тему  [ Сообщений: 5 ] 
Вы не можете начинать темы
Вы не можете отвечать на сообщения
Вы не можете редактировать свои сообщения
Вы не можете удалять свои сообщения