Правила форума

  • В этом разделе создание новых тем Запрещено.
  • Для создания новых тем пользуйтесь Корневым разделом DVD и HD фильмы.
Начать новую темуОтветить на тему  [ Сообщений: 2 ] 
Торрент файл
Размер: 3.58 GB • Зарегистрирован: 1 год 11 месяцев • Статус: Проверено
Скачан: 128 раз • Желающих скачать: 0 • Поблагодарили: 29 раз
 Раздают: 0  |  0 KB/s  ]   Качают: 0  |  0 KB/s  ] 
 Полного источника не было 2 дня 2 часа 
Сообщения
 Добавлено: 2014-12-19 09:44
RG-ELEKTRO
Аватара пользователя
Стаж: 2 года 3 месяца
Сообщений: 7928
Спасибок: 53768
Лайков: 3304
Прежде чем я усну / Before I Go to Sleep


Изображение


Страна: Великобритания, Франция, Швеция
Студия: Clarius Entertainment, Scott Free Productions, Millennium Films
Год выхода: 2014
Жанр: Триллер, детектив, драма
Продолжительность: 01:28:17
Перевод: Дублированный (Лицензия)

Режиссер: Роуэн Жоффе

В ролях: Николь Кидман, Колин Фёрт, Марк Стронг, Бен Кромптон, Энн-Мэри Дафф, Адам Леви, Гэбриел Стронг, Флинн МакАртур, Дин-Чарльз Чепмен, Ханна Блэмайерс

О фильме:
История о женщине, потерявшей память: каждое утро последние двадцать лет просто исчезают из ее воспоминаний, и каждое утро ей приходится по крупицам восстанавливать собственную жизнь. По совету врача, она записывает всё, что с ней происходит, на диктофон. И однажды Кристина с ужасом осознает, что в её жизни творится такое, о чём лучше забыть навсегда…


Изображение

Формат: MKV
Качество: BDRip 720p
Видео: MPEG-4 AVC, 4300 Кбит/с, 1280x536
Звук: Русский (DTS, 6 ch, 1510 Кбит/с)

"MI"
General
Unique ID : 172484325761706398205154940901546871586 (0x81C345D5B584452FB89451D9E7B54B22)
Complete name : D:\фильмы\Прежде чем я усну.2014.D.BDRip.720р.mkv
Format : Matroska
Format version : Version 4 / Version 2
File size : 3.58 GiB
Duration : 1h 28mn
Overall bit rate : 5 812 Kbps
Encoded date : UTC 2014-12-17 20:10:14
Writing application : mkvmerge v6.9.1 ('Blue Panther') 64bit built on Apr 18 2014 18:23:38
Writing library : libebml v1.3.0 + libmatroska v1.4.1

Video
ID : 1
Format : AVC
Format/Info : Advanced Video Codec
Format profile : High@L3.1
Format settings, CABAC : Yes
Format settings, ReFrames : 4 frames
Codec ID : V_MPEG4/ISO/AVC
Duration : 1h 28mn
Bit rate : 4 300 Kbps
Width : 1 280 pixels
Height : 536 pixels
Display aspect ratio : 2.40:1
Frame rate mode : Constant
Frame rate : 25.000 fps
Color space : YUV
Chroma subsampling : 4:2:0
Bit depth : 8 bits
Scan type : Progressive
Bits/(Pixel*Frame) : 0.251
Stream size : 2.58 GiB (72%)
Writing library : x264 core 130 r2273 b3065e6
Encoding settings : cabac=1 / ref=2 / deblock=1:-1:-1 / analyse=0x3:0x113 / me=hex / subme=4 / psy=1 / psy_rd=1.00:0.10 / mixed_ref=0 / me_range=16 / chroma_me=1 / trellis=1 / 8x8dct=1 / cqm=0 / deadzone=21,11 / fast_pskip=1 / chroma_qp_offset=-1 / threads=9 / lookahead_threads=2 / sliced_threads=0 / nr=0 / decimate=1 / interlaced=0 / bluray_compat=0 / constrained_intra=0 / bframes=3 / b_pyramid=2 / b_adapt=1 / b_bias=0 / direct=1 / weightb=1 / open_gop=0 / weightp=1 / keyint=250 / keyint_min=25 / scenecut=40 / intra_refresh=0 / rc_lookahead=20 / rc=2pass / mbtree=1 / bitrate=4300 / ratetol=1.0 / qcomp=0.60 / qpmin=0 / qpmax=69 / qpstep=4 / cplxblur=20.0 / qblur=0.5 / ip_ratio=1.40 / aq=1:1.00
Language : English
Default : Yes
Forced : No

Audio
ID : 2
Format : DTS
Format/Info : Digital Theater Systems
Mode : 16
Format settings, Endianness : Big
Codec ID : A_DTS
Duration : 1h 28mn
Bit rate mode : Constant
Bit rate : 1 510 Kbps
Channel(s) : 6 channels
Channel positions : Front: L C R, Side: L R, LFE
Sampling rate : 48.0 KHz
Bit depth : 24 bits
Compression mode : Lossy
Stream size : 953 MiB (26%)
Default : Yes
Forced : No

Свернуть

"Скриншоты"
Изображение
Изображение
Изображение


Свернуть
_________________
Не ищите меня в "ВКонтакте", в "Одноклассниках" меня нет - я на трекерах сижу!
Не в сети
Профиль  
 Добавлено: 2014-12-21 22:05 (спустя 2 дня 12 часов)
Аватара пользователя
Стаж: 8 лет 7 месяцев
Возраст: 37
Сообщений: 115
Спасибок: 191
Лайков: 2
Отличный фильм!!!! Кидман отлично передает такие противоречивые эмоции главной героини, отличная концовка.
Не в сети
Профиль  
Начать новую темуОтветить на тему  [ Сообщений: 2 ] 
Вы не можете начинать темы
Вы не можете отвечать на сообщения
Вы не можете редактировать свои сообщения
Вы не можете удалять свои сообщения