Правила форума

  • В этом разделе создание новых тем Запрещено.
  • Для создания новых тем пользуйтесь Корневым разделом DVD и HD фильмы.
Начать новую темуОтветить на тему  [ Сообщений: 2 ] 
Торрент файл
Размер: 7.53 GB • Зарегистрирован: 4 года 4 месяца • Статус: Проверено
Скачан: 183 раза • Желающих скачать: 0 • Поблагодарили: 42 раза
 Раздают: 0  |  0 KB/s  ]   Качают: 0  |  0 KB/s  ] 
 Полного источника не было 1 месяц 1 день 
Сообщения
 Добавлено: 2012-07-12 18:03
Top-releaser
Аватара пользователя
Стаж: 6 лет 7 месяцев
Сообщений: 2078
Спасибок: 3230
Лайков: 9
Престиж / The Prestige
«Дружба, ставшая соперничеством.
Соперничество, превратившееся во вражду.»

Изображение


Год выпуска: 2006
Страна: США, Великобритания
Жанр: фантастика, триллер, драма
Продолжительность: 02:10:29
Перевод: Профессиональный (полное дублирование)

Режиссёр: Кристофер Нолан
В ролях: Хью Джекман, Кристиан Бэйл, Майкл Кейн, Пайпер Перабо, Ребекка Холл, Скарлетт Йоханссон, Саманта Мэхурин, Дэвид Боуи, Энди Серкис, Дэниэл Дэвис
Описание: Руперт и Альфред - фокусники-иллюзионисты, которые на рубеже XIX и XX веков соперничали друг с другом в Лондоне. С годами их дружеская конкуренция на профессиональной почве перерастает в настоящую войну. Они готовы на все, чтобы выведать друг у друга секреты фантастических трюков и сорвать их исполнение. Но вскоре непримиримая вражда, вспыхнувшая между ними, начинает угрожать жизни окружающих их людей…

Раздача группы: Изображение

Качество: BDRip, 720p
Формат: MKV
Видео кодек: H.264
Аудио кодек: AC3, DTS
Видео: 1280x546, 23.976 fps, 5.600kbps
Аудио #1: Русский AC3 5.1 48kHz 640kbps (Дубляж)
Аудио #2: Русский AC3 5.1 48kHz 448kbps (Двухголосый)
Аудио #3: Английский DTS 5.1 48kHz 1536kbps (Оригинал)
Субтитры: Русские и Английские.

Знаете ли вы, что...
  • Создатель «Красоты по-американски» Сэм Мендес безумно хотел перенести роман «Престиж» на экран, но автор романа Кристофер Прист настоял на том, чтобы экранизацией занялся Нолан, настолько он был впечатлен фильмами «Преследование» и «Помни».
  • Роль фокусника Милтона исполнил настоящий иллюзионист Рики Джей. Помимо всего прочего, он преподавал уроки фокусов Бэйлу и Джекману.
  • Во время сцены с ловлей пули в списке исполнителей значится имя Гари Дрезден. На самом деле Гарри Дрезден – это вымышленный волшебник, герой серии книжек «Записки Дрездена», созданных Джимом Бутчером.
  • Фокусник Чанг Линг Су – не вымышленный герой. Скончался он на сцене, когда неудачно исполнил трюк «Поймай пулю».
  • Кристофер Нолан написал сценарий в соавторстве со своим братом Джонатоном. Они основательно переделали сюжет книги; в частности, убрали всю современную линию, а также сделали Анджиэра и Бордена приятелями еще до их смертельного противостояния. В книге главные герои не были знакомы друг с другом, пока не началась их вражда.
  • Кристофер Нолан планировал снять этот фильм ещё до «Бэтмена: Начало».
  • На раннем этапе производства режиссёр Нолан планировал на одну из главных ролей Джуда Лоу.
  • Энди Сёркис, исполнитель роли Голлума в трилогии «Властелин колец», стал последним актёром, присоединившимся к звёздному составу фильма. Он сыграл мистера Элли, ассистента изобретателя Тесла.
  • Съёмки картины продолжались с января по апрель 2006 года в Калифорнии, США.
  • Слово «престиж» упоминается в рекламном ролике фильма как «эффект, который производит магический трюк на аудиторию, не способную разгадать его тайну». В романе-первооснове это слово имеет и другой, по-настоящему мистический характер.
  • Роман «Престиж» Кристофера Приста был впервые опубликован в Англии в 1995 году.
  • Мистер Элли (Энди Сёркис) говорит, что Тесла испытывал машину на цилиндре Анджиэра (Хью Джекман) десять раз, следовательно и появившихся цилиндров должно было быть десять, однако их было намного больше (сцена в самом начале фильма).
Свернуть
MediaInfo
Общее
Уникальный идентификатор : 180570643853841686704332038442705482920 (0x87D8A41911F35E47947E5BF4E9FBF4A8)
Полное имя : Z:\WWW\TR-Downloads\The.Prestige.720p[R.G.Daredevil].mkv
Формат : Matroska
Версия формата : Version 2
Размер файла : 7,53 Гбайт
Продолжительность : 2 ч. 10 м.
Общий поток : 8258 Кбит/сек
Дата кодирования : UTC 2010-03-03 06:44:19
Программа кодирования : mkvmerge v3.2.0 ('Beginnings') built on Feb 12 2010 16:46:17
Библиотека кодирования : libebml v0.7.9 + libmatroska v0.8.1

Видео
Идентификатор : 1
Формат : AVC
Формат/Информация : Advanced Video Codec
Профиль формата : High@L4.1
Параметр CABAC формата : Да
Параметр ReFrames формата : 8 кадров
Идентификатор кодека : V_MPEG4/ISO/AVC
Продолжительность : 2 ч. 10 м.
Битрейт : 5661 Кбит/сек
Ширина : 1280 пикселей
Высота : 546 пикселей
Соотношение сторон : 2,35:1
Частота кадров : 23,976 кадра/сек
Цветовое пространство : YUV
Субдискретизация насыщенности : 4:2:0
Битовая глубина : 8 бит
Тип развёртки : Прогрессивная
Бит/(Пиксели*Кадры) : 0.338
Размер потока : 5,01 Гбайт (67%)
Заголовок : x264
Библиотека кодирования : x264 core 88 r1462 7fcffde
Настройки программы : cabac=1 / ref=8 / deblock=1:-3:-3 / analyse=0x3:0x113 / me=esa / subme=10 / psy=1 / psy_rd=1.00:0.00 / mixed_ref=1 / me_range=64 / chroma_me=1 / trellis=2 / 8x8dct=1 / cqm=0 / deadzone=21,11 / fast_pskip=0 / chroma_qp_offset=-2 / threads=6 / sliced_threads=0 / nr=0 / decimate=0 / mbaff=0 / constrained_intra=0 / bframes=6 / b_pyramid=2 / b_adapt=2 / b_bias=0 / direct=3 / wpredb=1 / wpredp=2 / keyint=250 / keyint_min=25 / scenecut=40 / intra_refresh=0 / rc=2pass / mbtree=0 / bitrate=5661 / ratetol=1.0 / qcomp=0.60 / qpmin=10 / qpmax=51 / qpstep=4 / cplxblur=20.0 / qblur=0.5 / ip_ratio=1.40 / pb_ratio=1.30 / aq=1:0.80
Язык : English
Default : Нет
Forced : Нет

Аудио #1
Идентификатор : 2
Формат : AC-3
Формат/Информация : Audio Coding 3
Расширение режима : CM (complete main)
Параметр Endianness формата : Big
Идентификатор кодека : A_AC3
Продолжительность : 2 ч. 10 м.
Вид битрейта : Постоянный
Битрейт : 640 Кбит/сек
Каналы : 6 каналов
Расположение каналов : Front: L C R, Side: L R, LFE
Частота : 48,0 КГц
Битовая глубина : 16 бит
Метод сжатия : С потерями
Задержка видео : 24 мс.
Размер потока : 597 Мбайт (8%)
Заголовок : AC3 5.1 640kbps (Dub)
Язык : Russian
Default : Да
Forced : Нет

Аудио #2
Идентификатор : 3
Формат : AC-3
Формат/Информация : Audio Coding 3
Расширение режима : CM (complete main)
Параметр Endianness формата : Big
Идентификатор кодека : A_AC3
Продолжительность : 2 ч. 10 м.
Вид битрейта : Постоянный
Битрейт : 448 Кбит/сек
Каналы : 6 каналов
Расположение каналов : Front: L C R, Side: L R, LFE
Частота : 48,0 КГц
Битовая глубина : 16 бит
Метод сжатия : С потерями
Размер потока : 418 Мбайт (5%)
Заголовок : AC3 5.1 448kbps (MVO)
Язык : Russian
Default : Нет
Forced : Нет

Аудио #3
Идентификатор : 4
Формат : DTS
Формат/Информация : Digital Theater Systems
Идентификатор кодека : A_DTS
Продолжительность : 2 ч. 10 м.
Вид битрейта : Постоянный
Битрейт : 1510 Кбит/сек
Каналы : 6 каналов
Расположение каналов : Front: L C R, Side: L R, LFE
Частота : 48,0 КГц
Битовая глубина : 24 бит
Метод сжатия : С потерями
Размер потока : 1,38 Гбайт (18%)
Заголовок : DTS 5.1 1536kbps
Язык : English
Default : Нет
Forced : Нет

Текст #1
Идентификатор : 5
Формат : UTF-8
Идентификатор кодека : S_TEXT/UTF8
Идентификатор кодека/Информация : UTF-8 Plain Text
Язык : Russian
Default : Нет
Forced : Нет

Текст #2
Идентификатор : 6
Формат : UTF-8
Идентификатор кодека : S_TEXT/UTF8
Идентификатор кодека/Информация : UTF-8 Plain Text
Язык : English
Default : Да
Forced : Нет
Свернуть
Скриншоты
Изображение

Изображение

Изображение

Изображение

Изображение
Свернуть
В сети
Профиль  
 Добавлено: 2012-12-28 16:26 (спустя 5 месяцев 15 дней)
Кинокомментатор
Аватара пользователя
Стаж: 9 лет 1 месяц
Сообщений: 1332
Лайков: 54
Жуткое кино!) В смысле жутко от него!)
Очень всё качественно! по умному! от души, но не для народа)) шутка)))
Актёры всё делают очень красиво, а сюжет закручен так сильно, что порою зашкаливает :)
Женщины мужчины двойники дети клоны птички голуби и клетки)) вот весь фильм:) отвечая на вопрос стоит ли смотреть!? конечно стоит смотреть, удивляться и ужасаться поступкам!
9/10
_________________
Я ВКонтакте
Не в сети
Профиль  
Начать новую темуОтветить на тему  [ Сообщений: 2 ] 
Вы не можете начинать темы
Вы не можете отвечать на сообщения
Вы не можете редактировать свои сообщения
Вы не можете удалять свои сообщения