Правила форума

  • В этом разделе создание новых тем Запрещено.
  • Для создания новых тем пользуйтесь Корневым разделом DVD и HD фильмы.
Начать новую темуОтветить на тему  [ 1 сообщение ] 
Торрент файл
Размер: 5.44 GB • Зарегистрирован: 3 года 11 месяцев • Статус: T Временный релиз
Скачан: 40 раз • Желающих скачать: 0 • Поблагодарили: 16 раз
 Раздают: 0  |  0 KB/s  ]   Качают: 0  |  0 KB/s  ] 
 Полного источника не было 2 года 8 месяцев 
Сообщения
 Добавлено: 2013-01-05 08:46
Модератор
Аватара пользователя
Стаж: 6 лет 10 месяцев
Возраст: 33
Сообщений: 5908
Спасибок: 61259
Лайков: 3540
Изображение

Преступник
Offender


Год выпуска: 2012
Страна: Великобритания
Слоган: «You do the crime. You do the time.»
Жанр: триллер
Продолжительность: 01:39:28
Перевод: Любительский (одноголосый)
Режиссер: Рон Скальпелло
Сценарий: Пол Ван Картер
Продюсер: Пол Ван Картер, Ник Тоссиг, Сара Эквайзомб, Риз Дэвид Томас, Лоуренс Браун
Оператор: Ричард Мотт
Композитор: Чад Хобсон
В ролях: Джо Коул, Инглиш Фрэнк, Кимберли Никсон, Шон Дули, Тайсон Оба, Джи Фрэш, Scorcher, Малачи Кирби, Рут Геммелль, Марк Купер Харрис, Дэниэл Кендрик, Дэвид Аджала
Бюджет: $2 000 000
Мировая премьера: 8 августа 2012
Описание: В центре событий парень 20-ти лет из рабочего класса - Томми Никс, который мстит за жестокое избиение своей девушки. Для того, чтобы разобраться с обидчиками, он садится в тюрьму, где те и обитают.

Изображение User Rating: 8.050 (40)
Изображение User Rating: 4.50 (409)
Раздача группы: Изображение
Изображение
Качество: BDRip, 720p
Формат: Matroska
Видео: AVC; 1280x688 (1.860); 4483 Kbps; 23,976 fps; 0,212 bit/pixel
Аудио №1: Russian; DTS; 1509 Kbps; CBR; 6 ch; 24 bit
Аудио №2: DTS; 1509 Kbps; CBR; 6 ch; 24 bit

Субтитры: Russian
mediainfo
ФИЛЬМЫ\ПРЕСТУПНИК (VO+SUB).2012.720p.BluRay.x264-lord_i_74.mkv
Формат : Matroska
Версия формата : Version 2
Размер файла : 5,44 Гбайт
Продолжительность : 1 ч. 41 м.
Общий поток : 7655 Кбит/сек
Дата кодирования : UTC 2013-01-04 08:26:54
Программа кодирования : mkvmerge v5.0.1 ('Es ist Sommer') built on Oct 9 2011 11:55:43
Библиотека кодирования : libebml v1.2.2 + libmatroska v1.3.0

Видео
Идентификатор : 1
Формат : AVC
Формат/Информация : Advanced Video Codec
Профиль формата : High@L4.1
Параметр CABAC формата : Да
Параметр ReFrames формата : 5 кадров
Идентификатор кодека : V_MPEG4/ISO/AVC
Продолжительность : 1 ч. 41 м.
Битрейт : 4634 Кбит/сек
Ширина : 1280 пикс.
Высота : 688 пикс.
Соотношение сторон : 1,860
Частота кадров : 23,976 кадр/сек
Цветовое пространство : YUV
Подвыборка цветности : 4:2:0
Битовая глубина : 8 бит
Тип развёртки : Прогрессивная
Бит/(Пиксели*Кадры) : 0.219
Размер потока : 3,19 Гбайт (59%)
Заголовок : Offender.2012.720p.BluRay.x264-SONiDO
Библиотека кодирования : x264 core 129 r2230 1cffe9f
Настройки программы : cabac=1 / ref=5 / deblock=1:0:0 / analyse=0x3:0x133 / me=umh / subme=7 / psy=1 / psy_rd=1.00:0.00 / mixed_ref=1 / me_range=16 / chroma_me=1 / trellis=1 / 8x8dct=1 / cqm=0 / deadzone=21,11 / fast_pskip=0 / chroma_qp_offset=-2 / threads=12 / lookahead_threads=2 / sliced_threads=0 / nr=0 / decimate=1 / interlaced=0 / bluray_compat=0 / constrained_intra=0 / bframes=3 / b_pyramid=2 / b_adapt=2 / b_bias=0 / direct=3 / weightb=1 / open_gop=0 / weightp=2 / keyint=250 / keyint_min=23 / scenecut=40 / intra_refresh=0 / rc_lookahead=50 / rc=2pass / mbtree=1 / bitrate=4634 / ratetol=1.0 / qcomp=0.60 / qpmin=0 / qpmax=69 / qpstep=4 / cplxblur=20.0 / qblur=0.5 / ip_ratio=1.40 / aq=1:1.00
Язык : English

Аудио #1
Идентификатор : 2
Формат : DTS
Формат/Информация : Digital Theater Systems
Идентификатор кодека : A_DTS
Продолжительность : 1 ч. 41 м.
Вид битрейта : Постоянный
Битрейт : 1510 Кбит/сек
Каналы : 6 каналов
Расположение каналов : Front: L C R, Side: L R, LFE
Частота : 48,0 КГц
Битовая глубина : 24 бит
Метод сжатия : С потерями
Размер потока : 1,07 Гбайт (20%)
Заголовок : VO den904 по переводу Михаила Коновалова
Язык : Russian

Аудио #2
Идентификатор : 3
Формат : DTS
Формат/Информация : Digital Theater Systems
Идентификатор кодека : A_DTS
Продолжительность : 1 ч. 41 м.
Вид битрейта : Постоянный
Битрейт : 1510 Кбит/сек
Каналы : 6 каналов
Расположение каналов : Front: L C R, Side: L R, LFE
Частота : 48,0 КГц
Битовая глубина : 24 бит
Метод сжатия : С потерями
Размер потока : 1,07 Гбайт (20%)
Язык : English

Текст
Идентификатор : 4
Формат : UTF-8
Идентификатор кодека : S_TEXT/UTF8
Идентификатор кодека/Информация : UTF-8 Plain Text
Заголовок : sub Михаил Коновалов
Язык : Russian
Свернуть
Скриншоты

Изображение
Изображение
Изображение
Изображение
Изображение
Свернуть
_________________
ИзображениеИзображение Изображение
Изображение
 tany1984 и di-ys1 нравится это.
Не в сети
Профиль  
Начать новую темуОтветить на тему  [ 1 сообщение ] 
Вы не можете начинать темы
Вы не можете отвечать на сообщения
Вы не можете редактировать свои сообщения
Вы не можете удалять свои сообщения