Правила форума

  • В этом разделе создание новых тем Запрещено.
  • Для создания новых тем пользуйтесь Корневым разделом DVD и HD фильмы.
Начать новую темуОтветить на тему  [ Сообщений: 7 ] 
Торрент файл
Размер: 5.78 GB • Зарегистрирован: 2 года 4 месяца • Статус: T Временный релиз
Скачан: 224 раза • Желающих скачать: 0 • Поблагодарили: 69 раз
 Раздают: 0  |  0 KB/s  ]   Качают: 0  |  0 KB/s  ] 
 Полного источника не было 8 часов 
Сообщения
 Добавлено: 2014-07-09 02:56
DVD Release Group
Аватара пользователя
Стаж: 7 лет 1 месяц
Сообщений: 3559
Спасибок: 247365
Лайков: 1018
Превосходство

Transcendence


Изображение


Год выпуска: 2014
Страна: Великобритания, Китай, США
Жанр: Фантастика, триллер, драма, детектив
Продолжительность: 01:59:16
Перевод: Профессиональный (полное дублирование) чистый звук
Режиссер: Уолли Пфистер
В ролях: Джонни Депп, Ребекка Холл, Пол Беттани, Киллиан Мёрфи, Морган Фримен, Кейт Мара, Клифтон Коллинз мл., Коул Хаузер, Джош Стюарт, Кори Хардрикт
Описание: Выдающийся исследователь в области изучения искусственного интеллекта Доктор Уилл Кастер работает над созданием компьютера, который сможет собрать в себе все знания и опыт, накопленные человечеством. Достаточно спорные эксперименты, проводимые Уиллом, прославили его, и в то же время сделали основной целью радикальной анти-технологической группировки. Экстремисты делают все возможное, чтобы остановить его. Однако в своих попытках уничтожить Уилла они добиваются обратного и становятся невольными участниками становления его абсолютного превосходства. Для его жены Эвелин и лучшего друга Макса Вотерса, тоже ученых-исследователей, встает вопрос должны ли они продолжать этот эксперимент. Их худшие опасения претворяются в жизнь, когда жажда знаний Уилла переходит в неконтролируемую жажду власти…
Изображение
Sample:
http://multi-up.com/985115
Качество: BDRip 720p
Формат: MKV
Видео кодек: H.264
Аудио кодек: AC3, DTS
Видео: 1280x536 23.98fps 5045Kbps
Аудио:
Audio Rus: AC3 48kHz 6ch 384Kbps
Audio Eng: DTS 48kHz 6ch 1510Kbps
"MediaInfo"
Формат : Matroska
Версия формата : Version 4 / Version 2
Размер файла : 5,78 Гбайт
Продолжительность : 1 ч. 59 м.
Общий поток : 6939 Кбит/сек
Дата кодирования : UTC 2014-07-08 18:01:23
Программа кодирования : mkvmerge v6.5.0 ('Isn't she lovely') built on Oct 20 2013 12:50:05
Библиотека кодирования : libebml v1.3.0 + libmatroska v1.4.1

Видео
Идентификатор : 1
Формат : AVC
Формат/Информация : Advanced Video Codec
Профиль формата : High@L4.1
Параметр CABAC формата : Да
Параметр ReFrames формата : 5 кадров
Идентификатор кодека : V_MPEG4/ISO/AVC
Продолжительность : 1 ч. 59 м.
Битрейт : 5045 Кбит/сек
Ширина : 1280 пикселей
Высота : 536 пикселей
Соотношение сторон : 2,40:1
Режим частоты кадров : Постоянный
Частота кадров : 23,976 кадра/сек
Цветовое пространство : YUV
Субдискретизация насыщенности : 4:2:0
Битовая глубина : 8 бит
Тип развёртки : Прогрессивная
Бит/(Пиксели*Кадры) : 0.307
Размер потока : 4,09 Гбайт (71%)
Библиотека кодирования : x264 core 142 r2431 ac76440
Настройки программы : cabac=1 / ref=5 / deblock=1:0:0 / analyse=0x3:0x133 / me=umh / subme=7 / psy=1 / psy_rd=1.00:0.00 / mixed_ref=1 / me_range=16 / chroma_me=1 / trellis=1 / 8x8dct=1 / cqm=0 / deadzone=21,11 / fast_pskip=0 / chroma_qp_offset=-2 / threads=18 / lookahead_threads=3 / sliced_threads=0 / nr=0 / decimate=1 / interlaced=0 / bluray_compat=0 / constrained_intra=0 / bframes=3 / b_pyramid=2 / b_adapt=1 / b_bias=0 / direct=1 / weightb=1 / open_gop=0 / weightp=2 / keyint=250 / keyint_min=23 / scenecut=40 / intra_refresh=0 / rc_lookahead=40 / rc=2pass / mbtree=1 / bitrate=5045 / ratetol=1.0 / qcomp=0.60 / qpmin=0 / qpmax=69 / qpstep=4 / cplxblur=20.0 / qblur=0.5 / ip_ratio=1.40 / aq=1:1.00
Язык : English
Default : Да
Forced : Нет

Аудио #1
Идентификатор : 2
Формат : AC-3
Формат/Информация : Audio Coding 3
Расширение режима : CM (complete main)
Параметр Endianness формата : Big
Идентификатор кодека : A_AC3
Продолжительность : 1 ч. 59 м.
Вид битрейта : Постоянный
Битрейт : 384 Кбит/сек
Каналы : 6 каналов
Расположение каналов : Front: L C R, Side: L R, LFE
Частота : 48,0 КГц
Битовая глубина : 16 бит
Метод сжатия : С потерями
Размер потока : 328 Мбайт (6%)
Default : Да
Forced : Нет

Аудио #2
Идентификатор : 3
Формат : DTS
Формат/Информация : Digital Theater Systems
Режим : 16
Параметр Endianness формата : Big
Идентификатор кодека : A_DTS
Продолжительность : 1 ч. 59 м.
Вид битрейта : Постоянный
Битрейт : 1509 Кбит/сек
Каналы : 6 каналов
Расположение каналов : Front: L C R, Side: L R, LFE
Частота : 48,0 КГц
Битовая глубина : 24 бит
Метод сжатия : С потерями
Размер потока : 1,26 Гбайт (22%)
Язык : English
Default : Нет
Forced : Нет

Меню
00:00:00.000 : en:00:00:00.000
00:11:20.847 : en:00:11:20.847
00:19:21.827 : en:00:19:21.827
00:31:00.776 : en:00:31:00.776
00:39:46.676 : en:00:39:46.676
00:50:20.434 : en:00:50:20.434
01:00:26.289 : en:01:00:26.289
01:11:07.972 : en:01:11:07.972
01:20:12.099 : en:01:20:12.099
01:29:36.037 : en:01:29:36.037
01:40:32.777 : en:01:40:32.777
01:50:53.772 : en:01:50:53.772
Свернуть

"Скриншоты"
Изображение
Изображение
Изображение
Изображение
Изображение
Изображение
Свернуть
Не в сети
Профиль  
 Добавлено: 2014-07-09 08:12 (спустя 5 часов)
Стаж: 2 года 6 месяцев
Сообщений: 2
Фильм понравился. Спасибо )
Не в сети
Профиль  
 Добавлено: 2014-07-09 17:05 (спустя 8 часов)
Аватара пользователя
Стаж: 9 лет
Сообщений: 100
Спасибок: 338
Лайков: 1
Блин откуда чистый звук то? он в кино то с завтрашнего дня!))

Аааа походу не лицензионное дублирование.
Не в сети
Профиль  
 Добавлено: 2014-07-10 18:28 (спустя 1 день 1 час)
Русские витязи
Аватара пользователя
Стаж: 6 лет 10 месяцев
Возраст: 30
Сообщений: 485
Лайков: 4
как перевод?
Не в сети
Профиль  
 Добавлено: 2014-07-16 17:43 (спустя 5 дней)
Стаж: 2 года 5 месяцев
Сообщений: 37
Лайков: 4
фильм гавнище.еле досмотрел.
Не в сети
Профиль  
 Добавлено: 2014-08-06 12:35 (спустя 20 дней)
Аватара пользователя
Стаж: 9 лет
Сообщений: 55
Спасибок: 385
Ппц переводище :)
название журнала "WIRED" прочитали неправильно, как "WIERD"... Соответственно перевели "Странные", а не что-то типа "Проводной", или "На связи", или "Подключенный"... Но уж никак не "Странные" хД
Не в сети
Профиль  
 Добавлено: 2015-08-27 17:58 (спустя 1 год)
Аватара пользователя
Стаж: 8 лет 3 месяца
Возраст: 33
Сообщений: 319
Спасибок: 602
Лайков: 34
Подскажите стоит вообще ждать официальное дублирование, пусть и не в наилучшем качестве, но не от студии пиратского дубляжа?
Желательн в HD.
Спасибо
Не в сети
Профиль  
Начать новую темуОтветить на тему  [ Сообщений: 7 ] 
Вы не можете начинать темы
Вы не можете отвечать на сообщения
Вы не можете редактировать свои сообщения
Вы не можете удалять свои сообщения