Правила форума

  • В этом разделе создание новых тем Запрещено.
  • Для создания новых тем пользуйтесь Корневым разделом DVD и HD фильмы.
Начать новую темуОтветить на тему  [ Сообщений: 7 ] 
Торрент файл
Размер: 9.4 GB • Зарегистрирован: 2 года 4 месяца • Статус: T Временный релиз
Скачан: 548 раз • Желающих скачать: 0 • Поблагодарили: 65 раз
 Раздают: 1  |  0 KB/s  ]   Качают: 0  |  0 KB/s  ] 
Сообщения
 Добавлено: 2014-07-09 10:41
DVD Release Group
Аватара пользователя
Стаж: 7 лет 1 месяц
Сообщений: 3542
Спасибок: 246749
Лайков: 1016
Превосходство

Transcendence


Изображение


Год выпуска: 2014
Страна: Великобритания, Китай, США
Жанр: Фантастика, триллер, драма, детектив
Продолжительность: 01:59:14
Перевод:
*Профессиональный (полное дублирование) чистый звук
*Авторский (одноголосный) Д. Есарев
Субтитры: Русские, английские
Режиссер: Уолли Пфистер
В ролях: Джонни Депп, Ребекка Холл, Пол Беттани, Киллиан Мёрфи, Морган Фримен, Кейт Мара, Клифтон Коллинз мл., Коул Хаузер, Джош Стюарт, Кори Хардрикт
Описание: Выдающийся исследователь в области изучения искусственного интеллекта Доктор Уилл Кастер работает над созданием компьютера, который сможет собрать в себе все знания и опыт, накопленные человечеством. Достаточно спорные эксперименты, проводимые Уиллом, прославили его, и в то же время сделали основной целью радикальной анти-технологической группировки. Экстремисты делают все возможное, чтобы остановить его. Однако в своих попытках уничтожить Уилла они добиваются обратного и становятся невольными участниками становления его абсолютного превосходства. Для его жены Эвелин и лучшего друга Макса Вотерса, тоже ученых-исследователей, встает вопрос должны ли они продолжать этот эксперимент. Их худшие опасения претворяются в жизнь, когда жажда знаний Уилла переходит в неконтролируемую жажду власти…
Изображение
Sample:
http://sendfile.su/999284
Качество: BDRip 1080p
Формат: MKV
Видео кодек: H.264
Аудио кодек: AC3, DTS
Видео: 1920x800 23.98fps 8945Kbps
Аудио:
Audio Rus: AC3 48kHz 6ch 384Kbps
Audio Rus: AC3 48kHz 6ch 448Kbps
Audio Eng: DTS 48kHz 6ch 1510Kbps
"MediaInfo"
Формат : Matroska
Версия формата : Version 2
Размер файла : 9,40 Гбайт
Продолжительность : 1 ч. 59 м.
Общий поток : 11,3 Мбит/сек
Название фильма : Transcendence (2014)
Дата кодирования : UTC 2014-07-09 05:33:00
Программа кодирования : mkvmerge v5.7.0 ('The Whirlwind') built on Aug 7 2012 14:11:40
Библиотека кодирования : libebml v1.2.3 + libmatroska v1.3.0
Attachment : Yes

Видео
Идентификатор : 1
Формат : AVC
Формат/Информация : Advanced Video Codec
Профиль формата : High@L4.1
Параметр CABAC формата : Да
Параметр ReFrames формата : 5 кадров
Идентификатор кодека : V_MPEG4/ISO/AVC
Продолжительность : 1 ч. 59 м.
Битрейт : 8945 Кбит/сек
Ширина : 1920 пикселей
Высота : 800 пикселей
Соотношение сторон : 2,40:1
Режим частоты кадров : Постоянный
Частота кадров : 23,976 кадра/сек
Цветовое пространство : YUV
Субдискретизация насыщенности : 4:2:0
Битовая глубина : 8 бит
Тип развёртки : Прогрессивная
Бит/(Пиксели*Кадры) : 0.243
Размер потока : 7,27 Гбайт (77%)
Заголовок : Превосходство-Transcendence.(2014).BDRip.[1080p]
Библиотека кодирования : x264 core 138 r2356 a1d3d17
Настройки программы : cabac=1 / ref=5 / deblock=1:-3:-3 / analyse=0x3:0x113 / me=umh / subme=10 / psy=1 / psy_rd=1.00:0.05 / mixed_ref=1 / me_range=32 / chroma_me=1 / trellis=2 / 8x8dct=1 / cqm=0 / deadzone=21,11 / fast_pskip=0 / chroma_qp_offset=-2 / threads=18 / lookahead_threads=1 / sliced_threads=0 / nr=0 / decimate=1 / interlaced=0 / bluray_compat=0 / constrained_intra=0 / bframes=4 / b_pyramid=2 / b_adapt=2 / b_bias=0 / direct=3 / weightb=1 / open_gop=0 / weightp=2 / keyint=250 / keyint_min=23 / scenecut=40 / intra_refresh=0 / rc=2pass / mbtree=0 / bitrate=8945 / ratetol=1.0 / qcomp=0.70 / qpmin=0 / qpmax=69 / qpstep=4 / cplxblur=20.0 / qblur=0.5 / ip_ratio=1.40 / pb_ratio=1.30 / aq=2:1.00
Язык : English
Default : Да
Forced : Нет

Аудио #1
Идентификатор : 2
Формат : AC-3
Формат/Информация : Audio Coding 3
Расширение режима : CM (complete main)
Параметр Endianness формата : Big
Идентификатор кодека : A_AC3
Продолжительность : 1 ч. 59 м.
Вид битрейта : Постоянный
Битрейт : 384 Кбит/сек
Каналы : 6 каналов
Расположение каналов : Front: L C R, Side: L R, LFE
Частота : 48,0 КГц
Битовая глубина : 16 бит
Метод сжатия : С потерями
Размер потока : 328 Мбайт (3%)
Заголовок : AC3 5.1 / 384 kbps / Dub (пиратский)
Язык : Russian
Default : Да
Forced : Нет

Аудио #2
Идентификатор : 3
Формат : AC-3
Формат/Информация : Audio Coding 3
Расширение режима : CM (complete main)
Параметр Endianness формата : Big
Идентификатор кодека : A_AC3
Продолжительность : 1 ч. 59 м.
Вид битрейта : Постоянный
Битрейт : 448 Кбит/сек
Каналы : 6 каналов
Расположение каналов : Front: L C R, Side: L R, LFE
Частота : 48,0 КГц
Битовая глубина : 16 бит
Метод сжатия : С потерями
Размер потока : 382 Мбайт (4%)
Заголовок : AC3 5.1 / 448 kbps / VO (Д. Есарев)
Язык : Russian
Default : Нет
Forced : Нет

Аудио #3
Идентификатор : 4
Формат : DTS
Формат/Информация : Digital Theater Systems
Режим : 16
Параметр Endianness формата : Big
Идентификатор кодека : A_DTS
Продолжительность : 1 ч. 59 м.
Вид битрейта : Постоянный
Битрейт : 1509 Кбит/сек
Каналы : 6 каналов
Расположение каналов : Front: L C R, Side: L R, LFE
Частота : 48,0 КГц
Битовая глубина : 24 бит
Метод сжатия : С потерями
Размер потока : 1,26 Гбайт (13%)
Заголовок : DTS 5.1 / 1536 kbps / Original
Язык : English
Default : Нет
Forced : Нет

Текст #1
Идентификатор : 5
Формат : UTF-8
Идентификатор кодека : S_TEXT/UTF8
Идентификатор кодека/Информация : UTF-8 Plain Text
Заголовок : Full (Notabenoid)
Язык : Russian
Default : Нет
Forced : Нет

Текст #2
Идентификатор : 6
Формат : UTF-8
Идентификатор кодека : S_TEXT/UTF8
Идентификатор кодека/Информация : UTF-8 Plain Text
Заголовок : Full
Язык : English
Default : Нет
Forced : Нет

Текст #3
Идентификатор : 7
Формат : UTF-8
Идентификатор кодека : S_TEXT/UTF8
Идентификатор кодека/Информация : UTF-8 Plain Text
Заголовок : SDH
Язык : English
Default : Нет
Forced : Нет

Меню
00:00:00.000 : en:00:00:00.000
00:11:20.847 : en:00:11:20.847
00:19:21.827 : en:00:19:21.827
00:31:00.776 : en:00:31:00.776
00:39:46.676 : en:00:39:46.676
00:50:20.434 : en:00:50:20.434
01:00:26.289 : en:01:00:26.289
01:11:07.972 : en:01:11:07.972
01:20:12.099 : en:01:20:12.099
01:29:36.037 : en:01:29:36.037
01:40:32.777 : en:01:40:32.777
01:50:53.772 : en:01:50:53.772
Свернуть

"Скриншоты"
Изображение
Изображение
Изображение
Изображение
Изображение
Изображение
Свернуть
Не в сети
Профиль  
 Добавлено: 2014-07-09 17:07 (спустя 6 часов)
Аватара пользователя
Стаж: 9 лет
Сообщений: 100
Спасибок: 338
Лайков: 1
дубляж не лицензия я так понял?
Не в сети
Профиль  
 Добавлено: 2014-07-09 17:35 (спустя 28 минут)
DVD Release Group
Аватара пользователя
Стаж: 7 лет 1 месяц
Сообщений: 3542
Спасибок: 246749
Лайков: 1016
AK47
Да, пиратская студия.
Не в сети
Профиль  
 Добавлено: 2014-07-09 20:04 (спустя 2 часа 28 минут)
Стаж: 6 лет 8 месяцев
Сообщений: 41
Спасибок: 7
в смысле пиратская студия? что с ней не так? что то не до конца доделано... в плане спец эфвектов или еще чего?
Не в сети
Профиль  
 Добавлено: 2014-07-10 15:40 (спустя 19 часов)
Аватара пользователя
Стаж: 6 лет 6 месяцев
Возраст: 28
Сообщений: 46
Теперь походу провалится в прокате)
Не в сети
Профиль  
 Добавлено: 2014-07-10 21:16 (спустя 5 часов)
Стаж: 9 лет
Сообщений: 312
Спасибок: 347
Лайков: 9
Блин. Думаю че не так с переводом :)
А ведь и правда перевод левый. По одной тетке-переводчице определил :) Она обычно дублирует всякое дешевое кинцо, еще подумал, как её взяли на относительно нормальный фильм :)
Хотя фильм конечно так себе.
Не в сети
Профиль  
 Добавлено: 2015-08-27 18:01 (спустя 1 год 1 месяц)
Аватара пользователя
Стаж: 8 лет 3 месяца
Возраст: 33
Сообщений: 319
Спасибок: 602
Лайков: 34
Подскажите стоит вообще ждать официальное дублирование, пусть и не в наилучшем качестве, но не от студии пиратского дубляжа?
Желательн в HD.
Спасибо
Не в сети
Профиль  
Начать новую темуОтветить на тему  [ Сообщений: 7 ] 
Вы не можете начинать темы
Вы не можете отвечать на сообщения
Вы не можете редактировать свои сообщения
Вы не можете удалять свои сообщения