Правила форума

  • В этом разделе создание новых тем Запрещено.
  • Для создания новых тем пользуйтесь Корневым разделом DVD и HD фильмы.
Начать новую темуОтветить на тему  [ 1 сообщение ] 
Торрент файл
Размер: 4.37 GB • Зарегистрирован: 4 года 1 месяц • Статус: Проверено
Скачан: 165 раз • Желающих скачать: 0 • Поблагодарили: 36 раз
 Раздают: 0  |  0 KB/s  ]   Качают: 0  |  0 KB/s  ] 
 Полного источника не было 4 месяца 24 дня 
Сообщения
 Добавлено: 2012-10-13 12:23
Аватара пользователя
Стаж: 7 лет 4 месяца
Возраст: 21
Сообщений: 419
Спасибок: 12709
Лайков: 18
Изображение
Президент Линкольн: Охотник на вампиров / Abraham Lincoln: Vampire Hunter

«Президент днём. Охотник ночью»

Год выпуска: 2012
Страна: США
Жанр: Ужасы, фэнтези, боевик, триллер
Продолжительность: 01:45:00
Перевод: Профессиональный (полное дублирование) [лицензия]

Режиссер: Тимур Бекмамбетов
Сценарий: Сет Грэм-Смит
Продюсер: Тимур Бекмамбетов, Тим Бёртон, Джим Лемли
Оператор: Калеб Дешанель
Композитор: Генри Джекман

В ролях: Бенджамин Уокер, Доминик Купер, Энтони Маки, Мэри Элизабет Уинстэд, Руфус Сьюэлл, МартонЧокаш, Джимми Симпсон, Джозеф Моул, Робин МакЛиви, Эрин Уоссон

Описание: Сюжет фильма раскрывает тайную жизнь Величайшего Президента Америки Авраама Линкольна — любящего мужа и отца днем и беспощадного убийцу вампиров ночью. Армия кровопийц, которым он бросил вызов, растет с каждым днем. Сможет ли президент великой страны противостоять полчищам вампиров и спасти свою семью и народ от неминуемой гибели?..

Раздача: Изображение


kinopoisk.ru: 6.152 (10 207)
imdb.com: 6.20 (21 194)


Бюджет: $69 000 000
Сборы в мире: $106 619 139
Сборы в США: $37 519 139
Мировая премьера: 18 июня 2012
Премьера РФ: 21 июня 2012, «Двадцатый Век Фокс СНГ»
Релиз на DVD: 18 октября 2012, «Двадцатый Век Фокс СНГ»
Релиз на Blu-Ray: 18 октября 2012, «Двадцатый Век Фокс СНГ»


Качество: BDRip 1080p
Формат: Matroska
Видео: 1920x800, 23,976 кадра/сек, 5570 Кбит/сек
Аудио: AC-3, 48,0 КГц, 6 каналов, 384 Кбит/сек


Изображение

MediaInfo
Общее
Уникальный идентификатор : 188264725734120058968883059873379767707 (0x8DA2779F6BBD2EE5B279B0E7FE93D59B)
Полное имя : D:\Torrents\Abraham.Lincoln.Vampire.Hunter.2012.x264.BDRip.1080p.DUB.mkv
Формат : Matroska
Версия формата : Version 2
Размер файла : 4,37 Гбайт
Продолжительность : 1 ч. 45 м.
Общий поток : 5954 Кбит/сек
Дата кодирования : UTC 2012-10-13 02:19:37
Программа кодирования : mkvmerge v5.5.0 ('Healer') built on Apr 6 2012 21:43:24
Библиотека кодирования : libebml v1.2.3 + libmatroska v1.3.0

Видео
Идентификатор : 1
Формат : AVC
Формат/Информация : Advanced Video Codec
Профиль формата : High@L4.0
Параметр CABAC формата : Да
Параметр ReFrames формата : 4 кадра
Идентификатор кодека : V_MPEG4/ISO/AVC
Продолжительность : 1 ч. 45 м.
Битрейт : 5570 Кбит/сек
Ширина : 1920 пикселей
Высота : 800 пикселей
Соотношение сторон : 2,40:1
Режим частоты кадров : Постоянный
Частота кадров : 23,976 кадра/сек
Цветовое пространство : YUV
Субдискретизация насыщенности : 4:2:0
Битовая глубина : 8 бит
Тип развёртки : Прогрессивная
Бит/(Пиксели*Кадры) : 0.151
Размер потока : 4,00 Гбайт (92%)
Заголовок : Президент Линкольн: Охотник на вампиров
Библиотека кодирования : x264 core 128 r2216 198a7ea
Настройки программы : cabac=1 / ref=4 / deblock=1:0:0 / analyse=0x3:0x133 / me=hex / subme=7 / psy=1 / psy_rd=1.00:0.00 / mixed_ref=1 / me_range=16 / chroma_me=1 / trellis=1 / 8x8dct=1 / cqm=0 / deadzone=21,11 / fast_pskip=1 / chroma_qp_offset=-2 / threads=12 / lookahead_threads=2 / sliced_threads=0 / nr=0 / decimate=1 / interlaced=0 / bluray_compat=0 / constrained_intra=0 / bframes=3 / b_pyramid=2 / b_adapt=1 / b_bias=0 / direct=1 / weightb=1 / open_gop=0 / weightp=2 / keyint=240 / keyint_min=23 / scenecut=40 / intra_refresh=0 / rc_lookahead=40 / rc=2pass / mbtree=1 / bitrate=5570 / ratetol=1.0 / qcomp=0.60 / qpmin=10 / qpmax=51 / qpstep=4 / cplxblur=20.0 / qblur=0.5 / ip_ratio=1.40 / aq=1:1.00
Язык : English
Default : Да
Forced : Нет

Аудио
Идентификатор : 2
Формат : AC-3
Формат/Информация : Audio Coding 3
Расширение режима : CM (complete main)
Параметр Endianness формата : Big
Идентификатор кодека : A_AC3
Продолжительность : 1 ч. 45 м.
Вид битрейта : Постоянный
Битрейт : 384 Кбит/сек
Каналы : 6 каналов
Расположение каналов : Front: L C R, Side: L R, LFE
Частота : 48,0 КГц
Битовая глубина : 16 бит
Метод сжатия : С потерями
Размер потока : 288 Мбайт (6%)
Заголовок : дубляж
Язык : Russian
Default : Да
Forced : Нет
Свернуть


Знаете ли Вы, что...
• В основу фильма легла одноимённая книга Сета Грэма-Смита.
• Том Харди, утвержденный на роль Линкольна, был вынужден отказаться из-за несогласованности в расписании съемок с фильмом «Темный рыцарь: Возрождение легенды» (2012). После него Эрик Бана, Тимоти Олифант, Эдриан Броуди, Джош Лукас, Джеймс Д`Арси и Оливер Джексон-Коэн рассматривались на эту роль, но в итоге она досталась Бенджамину Уокеру.
• Хоакин Феникс был первым претендентом на роль Генри Стерджесса, но отказался.
• Робин МакЛиви должна была играть жену Линкольна — Мэри Тодд, но в итоге была определена на роль его матери Нэнси.
• Велись переговоры с Трентом Резнором об эпизодической роли в фильме, но новость просочилась, прежде чем он принял окончательное решение, и Резнор отказался от участия в проекте, так как был потерян элемент неожиданности его появления в нем.
• Сэт Грэм-Смит написавший и сценарий, и сам роман, по которому снят фильм, рассказал «Time Magazine», что (в отличие от предположений большинства) человек в баре в конце фильма (который набирает сообщение, прежде чем [как мы предполагаем] Генри нанимает его, чтобы быть следующим охотником на вампиров) не Джордж Буш, Барак Обама, или какой-либо другой президент. Грэм-Смит сказал: «В этом человеке не подразумевается кто-то особенный, это было сделано для того, чтобы разобраться с предшествующей сценой Генри и Эйба». Он так же сказал, что этого человека (печатающего сообщение) сыграл сам.
• На балу, где Линкольн танцует с Марией, играет музыка «Estudiantina waltz», так же называется «Band of Students Waltz». Эта музыкальная аранжировка написана в 1883 году Эмилем Вальдтейфелем и впоследствии стала его «Opus 191, No. 4». Сама же мелодия была написана ранее в 1881 году композитором Полем Локомом, на стихи Ж. де Лузиньян Лау.
• Несколько раз на протяжении фильма в крупных планах Авраама Линкольна заметно, что он носит контактные линзы.
• В момент, когда Уилл заряжает револьвер в поезде, он вкладывает пули в барабан. Револьверы времен Гражданской войны заряжались с дула, и им требовался ударный капсюль для воспламенения порохового заряда. Пистолет же в кадре явно имеет отделения под патроны, а не систему с капсюлем.
• На флаге, который видно во время Геттисбергской речи, 50 звезд. А должно быть лишь 35.
• Когда Линкольн обнаруживает, что его часы на полу в комнате сына, показывают крупным планом Линкольна открывающего часы, чтобы прочесть надпись. Далее Линкольна показывают в другом ракурсе, часы все еще закрыты.
• После того, как президент Линкольн подзывает своего сына Вилли для поцелуя, а затем его друг Уилл делает то же самое, в момент, когда Вилли уходит из офиса, очки Уилла сначала одеты на нем, затем исчезают и появляются вновь.
• Когда Авраам Линкольн произносит свою последнюю речь, ветер сдувает со стола его шляпу. После своего выступления он идет, чтобы подобрать шляпу, и делает это, даже не наклонившись, несмотря на то, что шляпа по идее должна была лежать на земле.
• Во время сцены на плантации есть несколько кадров крупным планом, которые показывают, как Авраам и Генри наблюдают за танцующими через окно. И в отражении стекла четко видно как рабов, так и вампиров. Это невозможно, поскольку ранее Генри утверждал, что вампиров не видно в отражении.
• В конце первого дня битвы при Геттисберге, Линкольн понял, что Союз на грани поражения. За обедом к нему приходит идея напасть на вампиров с серебряным оружием. Он и его помощники собирают все серебро в Соединенных Штатах и переплавляют его в пули, ядра, штыки, сабли и т. д., упаковывают их. Далее собирают армию освобожденных рабов, в то время как Линкольн и его друзья захватывают поезд. Оружие поставляется на поле боя точно в срок и спасает положение. Реальная битва при Геттисберге продолжалась три дня, с 1-го по 3-е июля 1863 года, а это слишком мало времени, чтобы исполнить весь этот план.
Свернуть


Скриншоты:


Изображение


Изображение


Изображение


Свернуть
Не в сети
Профиль  
Начать новую темуОтветить на тему  [ 1 сообщение ] 
Вы не можете начинать темы
Вы не можете отвечать на сообщения
Вы не можете редактировать свои сообщения
Вы не можете удалять свои сообщения