Правила форума

  • В этом разделе создание новых тем Запрещено.
  • Для создания новых тем пользуйтесь Корневым разделом DVD и HD фильмы.
Начать новую темуОтветить на тему  [ 1 сообщение ] 
Торрент файл
Размер: 10.85 GB • Зарегистрирован: 4 года 1 месяц • Статус: Проверено
Скачан: 23 раза • Желающих скачать: 0 • Поблагодарили: 7 раз
 Раздают: 0  |  0 KB/s  ]   Качают: 0  |  0 KB/s  ] 
 Полного источника не было 3 года 2 месяца 
Сообщения
 Добавлено: 2012-10-21 15:01
Модератор
Аватара пользователя
Стаж: 8 лет 7 месяцев
Сообщений: 4965
Спасибок: 110254
Лайков: 18
Изображение

Приходи как есть / Hasta la Vista!


Год выпуска: 2011
Страна: Бельгия
Слоган: «Аста ла виста, девственность!»

Жанр: драма, комедия
Продолжительность: 01:53:52
Перевод: Профессиональный (многоголосый, закадровый)
Субтитры: Russian, English
Режиссер: Жоффрей Энтховен
Сценарий: Пьер Де Клерк, Аста Филпот, Мариано Ванхуф
Продюсер: Мариано Ванхуф, Аста Филпот, Жан Ринтс
Оператор: Герд Шелфхут
Композитор: Меурис, Пэйпермаут

В ролях: Робрехт Ванден Торен, Жилль Де Шрийвер, Том Ауденарт, Изабель де Гертог, Карлейн Силегем, Йохан Хелденберг, Кателин Вербеке, Карел Вингерхетц, Шарлотта Тиммерс, Роос Ван Владерен, Ксандра Ван Велден, Аста Филпот
Сборы в России: $17 136

Мировая премьера: 2 сентября 2011
Описание: История трех молодых людей, обожающих красивую жизнь, но ни разу не спавших с женщиной, потому что один из них слеп, второй передвигается на коляске, а третий и вовсе парализован. В поисках женщин они втроем отправляются в Испанию.
Изображение 7.4/10 (1789 users) Изображение 6.934 (566)
Релиз от: Изображение
Релиз группа: Изображение
Раздача группы: Изображение
"NFO"
Format : Matroska
Format version : Version 2
File size : 10.8 GiB
Duration : 1h 49mn
Overall bit rate : 14.2 Mbps
Movie name : _CMEGroup_BLUEBIRD
Encoded date : UTC 2012-10-19 05:58:11
Writing application : mkvmerge v5.8.0 ('No Sleep / Pillow') built on Sep 2 2012 15:37:04
Writing library : libebml v1.2.3 + libmatroska v1.3.0

Video
ID : 1
Format : AVC
Format/Info : Advanced Video Codec
Format profile : High@L4.1
Format settings, CABAC : Yes
Format settings, ReFrames : 4 frames
Codec ID : V_MPEG4/ISO/AVC
Duration : 1h 49mn
Bit rate : 11.2 Mbps
Width : 1 920 pixels
Height : 816 pixels
Display aspect ratio : 2.35:1
Frame rate : 25.000 fps
Color space : YUV
Chroma subsampling : 4:2:0
Bit depth : 8 bits
Scan type : Progressive
Bits/(Pixel*Frame) : 0.286
Stream size : 8.33 GiB (77%)
Writing library : x264 core 128 r2216 198a7ea
Encoding settings : cabac=1 / ref=4 / deblock=1:-3:-3 / analyse=0x3:0x113 / me=umh / subme=11 / psy=1 / psy_rd=1.00:0.00 / mixed_ref=1 / me_range=24 / chroma_me=1 / trellis=2 / 8x8dct=1 / cqm=0 / deadzone=21,11 / fast_pskip=1 / chroma_qp_offset=-2 / threads=6 / lookahead_threads=1 / sliced_threads=0 / nr=0 / decimate=1 / interlaced=0 / bluray_compat=0 / constrained_intra=0 / bframes=6 / b_pyramid=2 / b_adapt=2 / b_bias=0 / direct=2 / weightb=0 / open_gop=0 / weightp=2 / keyint=250 / keyint_min=25 / scenecut=40 / intra_refresh=0 / rc_lookahead=40 / rc=2pass / mbtree=1 / bitrate=11200 / ratetol=1.0 / qcomp=0.60 / qpmin=0 / qpmax=69 / qpstep=4 / cplxblur=20.0 / qblur=0.5 / ip_ratio=1.40 / aq=1:1.00 / zones=158882,163825,q=40
Language : English
Default : Yes
Forced : No

Audio #1
ID : 2
Format : DTS
Format/Info : Digital Theater Systems
Codec ID : A_DTS
Duration : 1h 49mn
Bit rate mode : Constant
Bit rate : 1 510 Kbps
Channel(s) : 6 channels
Channel positions : Front: L C R, Side: L R, LFE
Sampling rate : 48.0 KHz
Bit depth : 24 bits
Compression mode : Lossy
Stream size : 1.15 GiB (11%)
Language : Russian
Default : Yes
Forced : No

Audio #2
ID : 3
Format : DTS
Format/Info : Digital Theater Systems
Codec ID : A_DTS
Duration : 1h 49mn
Bit rate mode : Constant
Bit rate : 1 510 Kbps
Channel(s) : 6 channels
Channel positions : Front: L C R, Side: L R, LFE
Sampling rate : 48.0 KHz
Bit depth : 24 bits
Compression mode : Lossy
Stream size : 1.15 GiB (11%)
Language : Dutch
Default : No
Forced : No

Text #1
ID : 4
Format : UTF-8
Codec ID : S_TEXT/UTF8
Codec ID/Info : UTF-8 Plain Text
Language : Russian
Default : Yes
Forced : No

Text #2
ID : 5
Format : UTF-8
Codec ID : S_TEXT/UTF8
Codec ID/Info : UTF-8 Plain Text
Language : English
Default : No
Forced : No

Menu
00:00:00.000 : en:00:00:00.000
00:07:54.224 : en:00:07:54.224
00:19:28.876 : en:00:19:28.876
00:26:53.111 : en:00:26:53.111
00:35:26.708 : en:00:35:26.708
00:47:25.426 : en:00:47:25.426
00:57:30.489 : en:00:57:30.489
01:04:56.476 : en:01:04:56.476
01:15:21.100 : en:01:15:21.100
01:21:31.220 : en:01:21:31.220
01:31:31.403 : en:01:31:31.403
01:41:57.862 : en:01:41:57.862
01:48:52.735 : en:01:48:52.735
Свернуть

*Сохранены оригинальные чаптеры как на Blu-Ray
Качество: BDRip 1080p
Формат: MKV

Видео: MPEG-4 AVC, 11.2 Mбит/с, 1920x816
Аудио №1: Russian, DTS, 6 ch, 1510 Кбит/с
Аудио №2: Dutch, DTS, 6 ch, 1510 Кбит/с

"Скриншоты"

Изображение

Изображение

Изображение

Свернуть
_________________
Изображение Изображение Изображение
Билайн / АДС добавляйте ретрекер, чтобы качать на скорости 100 Мбит/с
Cкрытый текст
Изображение
Свернуть
Не в сети
Профиль  
Начать новую темуОтветить на тему  [ 1 сообщение ] 
Вы не можете начинать темы
Вы не можете отвечать на сообщения
Вы не можете редактировать свои сообщения
Вы не можете удалять свои сообщения