Правила форума

  • В этом разделе создание новых тем Запрещено.
  • Для создания новых тем пользуйтесь Корневым разделом DVD и HD фильмы.
Начать новую темуОтветить на тему  [ Сообщений: 7 ] 
Торрент файл
Размер: 9.88 GB • Зарегистрирован: 1 год 8 месяцев • Статус: Проверено
Скачан: 543 раза • Желающих скачать: 0 • Поблагодарили: 100 раз
 Раздают: 0  |  0 KB/s  ]   Качают: 0  |  0 KB/s  ] 
 Полного источника не было 6 часов 
Сообщения
 Добавлено: 2015-03-26 16:39
DVD Release Group
Аватара пользователя
Стаж: 7 лет 1 месяц
Сообщений: 3548
Спасибок: 247042
Лайков: 1018
Приключения Паддингтона

Paddington


Изображение


Год выпуска: 2014
Страна: Великобритания, Франция
Жанр: Комедия, семейный
Продолжительность: 01:35:12
Перевод: Профессиональный (полное дублирование)
Режиссер: Пол Кинг
В ролях: Джеффри Палмер, Тим Дауни, Мадлен Уорролл, Лотти Стир, Тереза Уотсон, Имелда Стонтон, Майкл Гэмбон, Бен Уишоу, Хью Бонневилль, Салли Хокинс
Описание: Познакомьтесь, это медведь по имени Паддингтон из дремучего Перу. Он приехал в Лондон, чтобы обрести семью и стать настоящим английским джентльменом. На пути к этой цели его ожидают невероятные приключения, полные юмора и опасностей.
Изображение
Sample:
http://sendfile.su/1100622
Качество: BDRip 1080p
Формат: MKV
Видео кодек: H.264
Аудио кодек: AC3, DTS
Видео: 1920x804 23.98fps 12,7Мбит/сек
Аудио:
Аудио Rus: AC3 48kHz 6ch 384kbps
Аудио Eng: DTS 48kHz 6ch 1510kbps
"MediaInfo"
Формат : Matroska
Версия формата : Version 4 / Version 2
Размер файла : 9,88 Гбайт
Продолжительность : 1 ч. 35 м.
Общий поток : 14,9 Мбит/сек
Дата кодирования : UTC 2015-03-26 10:00:36
Программа кодирования : mkvmerge v6.9.1 ('Blue Panther') 64bit built on Apr 18 2014 18:23:38
Библиотека кодирования : libebml v1.3.0 + libmatroska v1.4.1

Видео
Идентификатор : 1
Формат : AVC
Формат/Информация : Advanced Video Codec
Профиль формата : High@L4.1
Параметр CABAC формата : Да
Параметр ReFrames формата : 5 кадров
Идентификатор кодека : V_MPEG4/ISO/AVC
Продолжительность : 1 ч. 35 м.
Битрейт : 12,7 Мбит/сек
Ширина : 1920 пикселей
Высота : 804 пикселя
Соотношение сторон : 2,40:1
Режим частоты кадров : Постоянный
Частота кадров : 23,976 кадра/сек
Цветовое пространство : YUV
Субдискретизация насыщенности : 4:2:0
Битовая глубина : 8 бит
Тип развёртки : Прогрессивная
Бит/(Пиксели*Кадры) : 0.342
Размер потока : 8,43 Гбайт (85%)
Библиотека кодирования : x264 core 142 r2431+42 c69a006 tMod [8-bit@all X86_64]
Настройки программы : cabac=1 / ref=5 / deblock=1:-3:-3 / analyse=0x3:0x133 / me=umh / subme=10 / psy=1 / fade_compensate=0.00 / psy_rd=1.05:0.00 / mixed_ref=1 / me_range=24 / chroma_me=1 / trellis=2 / 8x8dct=1 / cqm=0 / deadzone=21,11 / fast_pskip=0 / chroma_qp_offset=-2 / threads=18 / lookahead_threads=3 / sliced_threads=0 / nr=0 / decimate=0 / interlaced=0 / bluray_compat=0 / constrained_intra=0 / fgo=0 / bframes=9 / b_pyramid=2 / b_adapt=2 / b_bias=0 / direct=3 / weightb=1 / open_gop=0 / weightp=2 / keyint=250 / keyint_min=23 / scenecut=40 / intra_refresh=0 / rc=crf / mbtree=0 / crf=18.0000 / qcomp=0.70 / qpmin=0:0:0 / qpmax=69:69:69 / qpstep=4 / ip_ratio=1.20 / pb_ratio=1.10 / aq=1:0.80 / aq-sensitivity=10.00 / aq-factor=1.00:1.00:1.00 / aq2=0 / aq3=0
Язык : English
Default : Да
Forced : Нет

Аудио #1
Идентификатор : 2
Формат : AC-3
Формат/Информация : Audio Coding 3
Расширение режима : CM (complete main)
Параметр Endianness формата : Big
Идентификатор кодека : A_AC3
Продолжительность : 1 ч. 35 м.
Вид битрейта : Постоянный
Битрейт : 384 Кбит/сек
Каналы : 6 каналов
Расположение каналов : Front: L C R, Side: L R, LFE
Частота : 48,0 КГц
Битовая глубина : 16 бит
Метод сжатия : С потерями
Размер потока : 262 Мбайт (3%)
Язык : Russian
Default : Да
Forced : Нет

Аудио #2
Идентификатор : 3
Формат : DTS
Формат/Информация : Digital Theater Systems
Режим : 16
Параметр Endianness формата : Big
Идентификатор кодека : A_DTS
Продолжительность : 1 ч. 35 м.
Вид битрейта : Постоянный
Битрейт : 1509 Кбит/сек
Каналы : 6 каналов
Расположение каналов : Front: L C R, Side: L R, LFE
Частота : 48,0 КГц
Битовая глубина : 24 бит
Метод сжатия : С потерями
Размер потока : 1,00 Гбайт (10%)
Язык : English
Default : Нет
Forced : Нет

Текст #1
Идентификатор : 4
Формат : UTF-8
Идентификатор кодека : S_TEXT/UTF8
Идентификатор кодека/Информация : UTF-8 Plain Text
Язык : English
Default : Нет
Forced : Нет

Текст #2
Идентификатор : 5
Формат : UTF-8
Идентификатор кодека : S_TEXT/UTF8
Идентификатор кодека/Информация : UTF-8 Plain Text
Заголовок : SDH
Язык : English
Default : Нет
Forced : Нет

Меню
00:00:00.000 : en:00:00:00.000
00:09:26.149 : en:00:09:26.149
00:16:45.755 : en:00:16:45.755
00:24:45.651 : en:00:24:45.651
00:32:44.921 : en:00:32:44.921
00:40:31.179 : en:00:40:31.179
00:47:55.664 : en:00:47:55.664
00:57:52.469 : en:00:57:52.469
01:03:24.467 : en:01:03:24.467
01:10:31.727 : en:01:10:31.727
01:23:49.983 : en:01:23:49.983
01:27:39.504 : en:01:27:39.504
Свернуть

"Скриншоты"
Изображение
Изображение
Изображение
Свернуть
 WISHMASTER23, dVision и Алешенькасынок нравится это.
Не в сети
Профиль  
 Добавлено: 2015-03-26 17:44 (спустя 1 час 5 минут)
Аватара пользователя
Стаж: 8 лет 3 месяца
Возраст: 33
Сообщений: 319
Спасибок: 602
Лайков: 34
ЗдОрово, вечером есть что посмотреть :dan_ser:
rastor, спасибо
Не в сети
Профиль  
 Добавлено: 2015-03-28 23:44 (спустя 2 дня 5 часов)
Аватара пользователя
Стаж: 9 лет 1 месяц
Сообщений: 2152
Спасибок: 778
Лайков: 14
Шикарное семейное кинцо.
_________________
PSN
Изображение
Свернуть
Изображение
Не в сети
Профиль  
 Добавлено: 2015-03-30 01:10 (спустя 1 день 1 час)
Стаж: 8 лет 2 месяца
Сообщений: 10
Спасибок: 1
Классическое голливудское семейное доброе и хорошее кино.
Не в сети
Профиль  
 Добавлено: 2015-04-21 09:15 (спустя 22 дня)
Аватара пользователя
Стаж: 7 лет 9 месяцев
Сообщений: 64
Страна: Великобритания, Франция
Не в сети
Профиль  
 Добавлено: 2015-04-22 19:10 (спустя 1 день 9 часов)
Аватара пользователя
Стаж: 3 года 4 месяца
Сообщений: 24
Класный фильм спасибо!я с дочкой ржал это ппц досихпор смеюсь когда вспоминаю!!!
Не в сети
Профиль  
 Добавлено: 2015-08-16 22:40 (спустя 3 месяца 24 дня)
Стаж: 7 лет 4 месяца
Сообщений: 165
Лайков: 6
Точно семейное кино? На скринах пожилой накрашенный мужик, на престарелого гомика похож :ne_ne:
Не в сети
Профиль  
Начать новую темуОтветить на тему  [ Сообщений: 7 ] 
Вы не можете начинать темы
Вы не можете отвечать на сообщения
Вы не можете редактировать свои сообщения
Вы не можете удалять свои сообщения