Правила форума

  • В этом разделе создание новых тем Запрещено.
  • Для создания новых тем пользуйтесь Корневым разделом DVD и HD фильмы.
Начать новую темуОтветить на тему  [ 1 сообщение ] 
Торрент файл
Размер: 3.23 GB • Зарегистрирован: 3 года • Статус: T Временный релиз
Скачан: 13 раз • Желающих скачать: 0 • Поблагодарили: 12 раз
 Раздают: 0  |  0 KB/s  ]   Качают: 0  |  0 KB/s  ] 
 Полного источника не было 1 год 6 месяцев 
Сообщения
 Добавлено: 2013-11-28 09:30
Аватара пользователя
Стаж: 7 лет 2 месяца
Сообщений: 7167
Спасибок: 82011
Лайков: 2438
Приливы / The Hot Flashes

Изображение


Год выпуска: 2013
Страна: США
Слоган: «Everyone thought their glory days were over. Everyone thought wrong»
Жанр: комедия
Продолжительность: 01:39:34
Перевод: Любительский (двухголосый закадровый) + Оригинальная звуковая дорожка
Субтитры: Английские

Режиссёр: Сьюзэн Сейдельман
В ролях: Брук Шилдс, Дэрил Ханна, Шарлотт Грэхэм, Карл Палмер, Ванда Сайкес, Эрик Робертс, Джессика Ротэ, Андреа Франкл
Описание: Пять «бабушек» бальзаковского возраста собрались в команду и решили обыграть местных баскетбольных чемпионов. Все они когда-то в школе и колледже кидали мяч в кольцо и сейчас они решили бросить вызов команде не знающей поражений. Денежный приз они собираются пожертвовать на борьбу с раком груди.
Изображение

Качество: WEB-DL 720p
Формат: MKV
Видео кодек: H264 (AVC)
Аудио кодек: AC3 (Dolby Digital)
Видео: 1 280x688, 23.976 fps, 3 969 Kbps
Аудио #1: 48.0 KHz, 2 ch, 192 Kbps [Любительский (двухголосый закадровый)] студия Elrom
Аудио #2: 48.0 KHz, 6 ch, 384 Kbps [Оригинальная звуковая дорожка]
Субтитры: Английские
Изображение
Скриншоты
Изображение

Изображение

Изображение

Изображение
Свернуть
MI
General
Приливы.2013.mkv
Format : Matroska
Format version : Version 4 / Version 2
File size : 3.23 GiB
Duration : 1h 39mn
Overall bit rate : 4 637 Kbps
Encoded date : UTC 2013-11-27 20:13:15
Writing application : mkvmerge v6.5.0 ('Isn't she lovely') built on Oct 20 2013 12:50:05
Writing library : libebml v1.3.0 + libmatroska v1.4.1

Video
ID : 1
Format : AVC
Format/Info : Advanced Video Codec
Format profile : High@L3.1
Format settings, CABAC : No
Format settings, ReFrames : 2 frames
Codec ID : V_MPEG4/ISO/AVC
Duration : 1h 39mn
Bit rate : 3 969 Kbps
Width : 1 280 pixels
Height : 688 pixels
Display aspect ratio : 1.85:1
Frame rate mode : Constant
Frame rate : 23.976 fps
Color space : YUV
Chroma subsampling : 4:2:0
Bit depth : 8 bits
Scan type : Progressive
Bits/(Pixel*Frame) : 0.188
Stream size : 2.76 GiB (86%)
Language : English
Default : Yes
Forced : No
Color primaries : BT.709
Transfer characteristics : BT.709
Matrix coefficients : BT.709

Audio #1
ID : 2
Format : AC-3
Format/Info : Audio Coding 3
Mode extension : CM (complete main)
Format settings, Endianness : Big
Codec ID : A_AC3
Duration : 1h 39mn
Bit rate mode : Constant
Bit rate : 192 Kbps
Channel(s) : 2 channels
Channel positions : Front: L R
Sampling rate : 48.0 KHz
Bit depth : 16 bits
Compression mode : Lossy
Stream size : 137 MiB (4%)
Title : [студия Elrom]
Language : Russian
Default : Yes
Forced : Yes

Audio #2
ID : 3
Format : AC-3
Format/Info : Audio Coding 3
Mode extension : CM (complete main)
Format settings, Endianness : Big
Codec ID : A_AC3
Duration : 1h 39mn
Bit rate mode : Constant
Bit rate : 384 Kbps
Channel(s) : 6 channels
Channel positions : Front: L C R, Side: L R, LFE
Sampling rate : 48.0 KHz
Bit depth : 16 bits
Compression mode : Lossy
Stream size : 274 MiB (8%)
Language : English
Default : No
Forced : No

Text
ID : 4
Format : UTF-8
Codec ID : S_TEXT/UTF8
Codec ID/Info : UTF-8 Plain Text
Language : English
Default : No
Forced : No

Menu
00:00:00.000 : en:Chapter 01
00:07:51.000 : en:Chapter 02
00:15:04.000 : en:Chapter 03
00:22:05.000 : en:Chapter 04
00:29:14.000 : en:Chapter 05
00:36:24.000 : en:Chapter 06
00:43:52.000 : en:Chapter 07
00:51:32.000 : en:Chapter 08
00:59:21.000 : en:Chapter 09
01:07:27.000 : en:Chapter 10
01:14:39.000 : en:Chapter 11
01:24:35.000 : en:Chapter 12
01:31:13.000 : en:Chapter 13
01:33:03.000 : en:Chapter 14
Свернуть
 MiSkam, zima-letoru и rotametr нравится это.
Не в сети
Профиль  
Начать новую темуОтветить на тему  [ 1 сообщение ] 
Вы не можете начинать темы
Вы не можете отвечать на сообщения
Вы не можете редактировать свои сообщения
Вы не можете удалять свои сообщения