Правила форума

  • В этом разделе создание новых тем Запрещено.
  • Для создания новых тем пользуйтесь Корневым разделом DVD и HD фильмы.
Начать новую темуОтветить на тему  [ Сообщений: 3 ] 
Торрент файл
Размер: 14.44 GB • Зарегистрирован: 2 года 1 месяц • Статус: T Временный релиз
Скачан: 33 раза • Желающих скачать: 0 • Поблагодарили: 11 раз
 Раздают: 0  |  0 KB/s  ]   Качают: 0  |  0 KB/s  ] 
 Полного источника не было 1 год 2 месяца 
Сообщения
 Добавлено: 2014-10-17 12:37
RG-ELEKTRO
Аватара пользователя
Стаж: 2 года 3 месяца
Сообщений: 7928
Спасибок: 53761
Лайков: 3304
Принц / The Prince



Изображение

Страна: США
Студия: Aperture Entertainment, Emmett/Furla Films, Grindstone Entertainment Group, Oasis Films
Год выхода: 2014
Жанр: Боевик, триллер
Продолжительность: 01:30:39
Перевод: Любительский двухголосый (Сладкая парочка), любительский двухголосый (Savetig Studios), любительский одноголосый (Andi)

Режиссер: Брайан А. Миллер

В ролях: Джейсон Патрик, Брюс Уиллис, Джон Кьюсак, Фифти Сент, Рэйн, Джессика Лаундес, Джонатон Шек, Джина Мантенья

О фильме:
Пол давно порвал с темным прошлым и ведет честную жизнь, неожиданные обстоятельства вынуждают его отправиться на поиски пропавшей дочери. Так он оказывается в городе, где не был 20 лет, и где до сих пор его помнят и жаждут свести с ним счеты старые друзья и недруги.

Изображение

Кодек: AVC, H.264
Формат: MKV
Качество: Blu-Ray Remux 1080p
Видео: MPEG-4 AVC, 18000 Кбит/с, 1920x1080
Аудио №1 48 kHz, AC3 Dolby Digital, 3/2 (L,C,R,l,r) + LFE ch, ~384 kbps (Сладкая парочка)
Аудио №2 48 kHz, AC3 Dolby Digital, 2/0 (L,R) ch, ~192 kbps (Savetig Studios)
Аудио №3 48 kHz, AC3 Dolby Digital, 3/2 (L,C,R,l,r) + LFE ch, ~384 kbps (Andi)
Аудио №4 48 kHz, DTS-HD MA, 3/2 (L,C,R,l,r) + LFE ch, ~3866 kbps avg (ENG)
Субтитры: Русские, английские

"Инфо-файл"
General
Complete name : The.Prince.2014.1080p.BluRay.Remux.ExKinoRay.mkv
Format : Matroska
Format version : Version 2
File size : 14.4 GiB
Duration : 1h 30mn
Overall bit rate mode : Variable
Overall bit rate : 22.8 Mbps
Encoded date : UTC 2014-10-17 00:01:11
Writing application : mkvmerge v5.8.0 ('No Sleep / Pillow') built on Sep 2 2012 15:37:04
Writing library : libebml v1.2.3 + libmatroska v1.3.0

Video
ID : 1
Format : AVC
Format/Info : Advanced Video Codec
Format profile : High@L4.1
Format settings, CABAC : Yes
Format settings, ReFrames : 4 frames
Codec ID : V_MPEG4/ISO/AVC
Duration : 1h 30mn
Bit rate mode : Variable
Maximum bit rate : 37.0 Mbps
Width : 1 920 pixels
Height : 1 080 pixels
Display aspect ratio : 16:9
Frame rate mode : Constant
Frame rate : 23.976 fps
Color space : YUV
Chroma subsampling : 4:2:0
Bit depth : 8 bits
Scan type : Progressive
Language : English
Default : Yes
Forced : Yes

Audio #1
ID : 2
Format : AC-3
Format/Info : Audio Coding 3
Mode extension : CM (complete main)
Format settings, Endianness : Big
Codec ID : A_AC3
Duration : 1h 30mn
Bit rate mode : Constant
Bit rate : 384 Kbps
Channel(s) : 6 channels
Channel positions : Front: L C R, Side: L R, LFE
Sampling rate : 48.0 KHz
Bit depth : 16 bits
Compression mode : Lossy
Stream size : 249 MiB (2%)
Title : Sladkaja parochka
Language : Russian
Default : Yes
Forced : Yes

Audio #2
ID : 3
Format : AC-3
Format/Info : Audio Coding 3
Mode extension : CM (complete main)
Format settings, Endianness : Big
Codec ID : A_AC3
Duration : 1h 30mn
Bit rate mode : Constant
Bit rate : 192 Kbps
Channel(s) : 2 channels
Channel positions : Front: L R
Sampling rate : 48.0 KHz
Bit depth : 16 bits
Compression mode : Lossy
Stream size : 124 MiB (1%)
Title : Savetig Studios
Language : Russian
Default : No
Forced : No

Audio #3
ID : 4
Format : AC-3
Format/Info : Audio Coding 3
Mode extension : CM (complete main)
Format settings, Endianness : Big
Codec ID : A_AC3
Duration : 1h 30mn
Bit rate mode : Constant
Bit rate : 384 Kbps
Channel(s) : 6 channels
Channel positions : Front: L C R, Side: L R, LFE
Sampling rate : 48.0 KHz
Bit depth : 16 bits
Compression mode : Lossy
Stream size : 249 MiB (2%)
Title : Andi
Language : Russian
Default : No
Forced : No

Audio #4
ID : 5
Format : DTS
Format/Info : Digital Theater Systems
Format profile : MA / Core
Mode : 16
Format settings, Endianness : Big
Codec ID : A_DTS
Duration : 1h 30mn
Bit rate mode : Variable
Bit rate : Unknown / 1 509 Kbps
Channel(s) : 6 channels
Channel positions : Front: L C R, Side: L R, LFE
Sampling rate : 48.0 KHz
Bit depth : 24 bits
Compression mode : Lossless / Lossy
Language : English
Default : No
Forced : No

Text #1
ID : 6
Format : UTF-8
Codec ID : S_TEXT/UTF8
Codec ID/Info : UTF-8 Plain Text
Title : Notabenoid
Language : Russian
Default : No
Forced : No

Text #2
ID : 7
Format : UTF-8
Codec ID : S_TEXT/UTF8
Codec ID/Info : UTF-8 Plain Text
Language : English
Default : No
Forced : No

Text #3
ID : 8
Format : UTF-8
Codec ID : S_TEXT/UTF8
Codec ID/Info : UTF-8 Plain Text
Title : SHD
Language : English
Default : No
Forced : No

Menu
00:00:00.000 : en:00:00:00.000
00:06:34.894 : en:00:06:34.894
00:09:59.849 : en:00:09:59.849
00:14:47.220 : en:00:14:47.220
00:20:16.632 : en:00:20:16.632
00:25:11.593 : en:00:25:11.593
00:29:33.855 : en:00:29:33.855
00:36:03.036 : en:00:36:03.036
00:42:06.816 : en:00:42:06.816
00:49:44.899 : en:00:49:44.899
00:58:12.531 : en:00:58:12.531
01:05:17.122 : en:01:05:17.122
01:09:09.187 : en:01:09:09.187
01:13:44.211 : en:01:13:44.211
01:17:39.280 : en:01:17:39.280
01:26:11.750 : en:01:26:11.750
Свернуть

"Скриншоты"
Изображение
Изображение
Изображение


Свернуть
_________________
Не ищите меня в "ВКонтакте", в "Одноклассниках" меня нет - я на трекерах сижу!
Не в сети
Профиль  
 Добавлено: 2014-10-18 11:01 (спустя 22 часа)
Стаж: 7 лет 8 месяцев
Сообщений: 10
Лайков: 2
Как фильм?
Не в сети
Профиль  
 Добавлено: 2014-10-18 15:03 (спустя 4 часа)
RG-ELEKTRO
Аватара пользователя
Стаж: 2 года 3 месяца
Сообщений: 7928
Спасибок: 53761
Лайков: 3304

zoyberg777:

Как фильм?
почитайте отзывы в этой теме Принц
_________________
Не ищите меня в "ВКонтакте", в "Одноклассниках" меня нет - я на трекерах сижу!
Не в сети
Профиль  
Начать новую темуОтветить на тему  [ Сообщений: 3 ] 
Вы не можете начинать темы
Вы не можете отвечать на сообщения
Вы не можете редактировать свои сообщения
Вы не можете удалять свои сообщения