Правила форума

  • В этом разделе создание новых тем Запрещено.
  • Для создания новых тем пользуйтесь Корневым разделом DVD и HD фильмы.
Начать новую темуОтветить на тему  [ 1 сообщение ] 
Торрент файл
Размер: 6.9 GB • Зарегистрирован: 5 лет 8 месяцев • Статус: Проверено
Скачан: 35 раз • Желающих скачать: 0 • Поблагодарили: 7 раз
 Раздают: 0  |  0 KB/s  ]   Качают: 0  |  0 KB/s  ] 
 Полного источника не было 3 года 2 месяца 
Сообщения
 Добавлено: 2011-03-14 20:16
Модератор
Аватара пользователя
Стаж: 8 лет 1 месяц
Возраст: 20
Сообщений: 32130
Спасибок: 98563
Лайков: 80
Принцесса де Монпансье / La princesse de Montpensier

Изображение
Год выпуска: 2010
Страна: Германия, Франция
Жанр: драма, мелодрама, история
Продолжительность: 02:00:55
Перевод: Профессиональный (многоголосый, закадровый) [RelizLab]

Режиссер: Бертран Тавернье / Bertrand Tavernier
Сценарий: Жан Космо / Jean Cosmos, мадам де ла Файетт / Madame de La Fayette, Франсуа-Оливье Руссо / François-Olivier Rousseau, Бертран Тавернье / Bertrand Tavernier
Продюсер: Фридерик Бурбулон / Frédéric Bourboulon, Laurent Brochand, Эрик Хойманн / Eric Heumann
Оператор: Бруно де Кейзер / Bruno de Keyzer
Композитор: Филипп Сард / Philippe Sarde

В ролях: Мелани Тьерри (Princesse Marie de Montpensier), Ламбер Вильсон (Comte de Chabannes), Грегуар Лепренс-Ренге (Prince de Montpensier), Гаспар Улье (Henri de Guise), Рафаэль Персонас (Duc d'Anjou), Анатоль де Бодина (Joyeuse), Эрик Рюллья (Quelus), Сэмюэл Тейс (La Valette), Мишель Вюйермоз (Duc de Montpensier), Жюдит Шемла (Catherine de Guise), Филипп Маньян (Marquis de Mézières), Сезар Домбой (Mayenne)
Дублёры: Наталья Фищук (Princesse Marie de Montpensier), Владимир Антоник (Comte de Chabannes), Михаил Тихонов (Prince de Montpensier), Радик Мухаметзянов (Henri de Guise), Дмитрий Курта (Duc d'Anjou), Иван Жарков (La Valette), Петр Тобилевич (Duc de Montpensier), Лина Иванова (Catherine de Guise), Михаил Георгиу (Marquis de Mézières), Прохор Чеховской (Mayenne), Артем Карапетян (Cardinal de Lorraine), Нина Тобилевич (Marquise de Mézières)
Описание: 1562 г., Францией управляет Карл IX, в стране бушуют религиозные войны… Мари де Мезьер, одна из самых богатых наследниц королевства, любит молодого герцога де Гиза, позже получившего прозвище «Меченый», и он, как ей кажется, разделяет ее чувство. Однако отец девушки, маркиз де Мезьер, стремится возвысить свою семью, и отдает дочь замуж за принца Монпансье, которого она даже не знает. Карл IX вызывает принца присоединиться к нему в борьбе с протестантами.
Франция охвачена огнем войны, и Монпансье отправляет свою молодую жену в отдаленный замок Шампиньи в сопровождении графа де Шабанна. Он поручает графу, своему бывшему наставнику и другу, завершить воспитание молодой принцессы, чтобы однажды она могла предстать при дворе. Мари старается забыть страсть, которую она по-прежнему питает к Гизу. Обстоятельства складываются таким образом, что Гиз и герцог Анжуйский, будущий король Генрих III, приезжают в Шампиньи, в то время как там находится Монпансье. Герцог Анжуйский, как и граф де Шабанн, влюбляется в принцессу... Мари становится предметом опасного и жестокого соперничества.

Релиз: Изображение Раздача: Изображение

Изображение
Изображение
Сборы в мире: $6 372 001
Сборы в России: $395 289
Мировая премьера: 16 мая 2010
Качество: BDRip 720p
Формат: MKV
Видео: 5186 kb/s, 1280x544, 24.000 fps
Аудио: Russian: AC3, 384 kb/s (6 ch) / French: DTS, 1510 kb/s (6 ch)

MediaInfo
General
Complete name                    : La.Princesse.De.Montpensier.2010.P.BDRip.720p-btv.UNIONGANG.mkv
Format                           : Matroska
File size                        : 6.90 GiB
Duration                         : 2h 19mn
Overall bit rate                 : 7 079 Kbps
Movie name                       : mgl-princessem720p
Encoded date                     : UTC 2011-03-14 16:29:26
Writing application              : mkvmerge v3.4.0 ('Rapunzel') сборка от May 15 2010 09:38:20
Writing library                  : libebml v0.8.0 + libmatroska v0.9.0

Video
ID                               : 1
Format                           : AVC
Format/Info                      : Advanced Video Codec
Format profile                   : High@L4.1
Format settings, CABAC           : Yes
Format settings, ReFrames        : 5 frames
Format settings, GOP             : M=4, N=16
Codec ID                         : V_MPEG4/ISO/AVC
Duration                         : 2h 19mn
Bit rate                         : 5 186 Kbps
Width                            : 1 280 pixels
Height                           : 544 pixels
Display aspect ratio             : 2.35:1
Frame rate                       : 24.000 fps
Color space                      : YUV
Chroma subsampling               : 4:2:0
Bit depth                        : 8 bits
Scan type                        : Progressive
Bits/(Pixel*Frame)               : 0.310
Stream size                      : 4.92 GiB (71%)
Writing library                  : x264 core 114 r1913 5fd3dce
Encoding settings                : cabac=1 / ref=5 / deblock=1:0:0 / analyse=0x3:0x133 / me=umh / subme=7 / psy=1 / psy_rd=1.00:0.00 / mixed_ref=1 / me_range=16 / chroma_me=1 / trellis=1 / 8x8dct=1 / cqm=0 / deadzone=21,11 / fast_pskip=1 / chroma_qp_offset=-2 / threads=3 / sliced_threads=0 / nr=0 / decimate=1 / interlaced=0 / constrained_intra=0 / bframes=3 / b_pyramid=2 / b_adapt=1 / b_bias=0 / direct=3 / weightb=1 / open_gop=0 / weightp=2 / keyint=240 / keyint_min=24 / scenecut=40 / intra_refresh=0 / rc_lookahead=40 / rc=2pass / mbtree=1 / bitrate=5186 / ratetol=1.0 / qcomp=0.60 / qpmin=0 / qpmax=69 / qpstep=4 / cplxblur=20.0 / qblur=0.5 / vbv_maxrate=25000 / vbv_bufsize=25000 / nal_hrd=none / ip_ratio=1.40 / aq=1:1.00

Audio #1
ID                               : 2
Format                           : AC-3
Format/Info                      : Audio Coding 3
Mode extension                   : CM (complete main)
Codec ID                         : A_AC3
Duration                         : 2h 19mn
Bit rate mode                    : Constant
Bit rate                         : 384 Kbps
Channel(s)                       : 6 channels
Channel positions                : Front: L C R, Side: L R, LFE
Sampling rate                    : 48.0 KHz
Bit depth                        : 16 bits
Compression mode                 : Lossy
Stream size                      : 383 MiB (5%)
Language                         : Russian

Audio #2
ID                               : 3
Format                           : DTS
Format/Info                      : Digital Theater Systems
Codec ID                         : A_DTS
Duration                         : 2h 19mn
Bit rate mode                    : Constant
Bit rate                         : 1 510 Kbps
Channel(s)                       : 6 channels
Channel positions                : Front: L C R, Side: L R, LFE
Sampling rate                    : 48.0 KHz
Bit depth                        : 16 bits
Compression mode                 : Lossy
Stream size                      : 1.47 GiB (21%)
Language                         : French
Свернуть
Скриншоты
Изображение
Изображение
Изображение
Изображение
Свернуть
Не в сети
Профиль  
Начать новую темуОтветить на тему  [ 1 сообщение ] 
Вы не можете начинать темы
Вы не можете отвечать на сообщения
Вы не можете редактировать свои сообщения
Вы не можете удалять свои сообщения
cron