Правила форума

  • В этом разделе создание новых тем Запрещено.
  • Для создания новых тем пользуйтесь Корневым разделом DVD и HD фильмы.
Начать новую темуОтветить на тему  [ Сообщений: 3 ] 
Торрент файл
Размер: 4.68 GB • Зарегистрирован: 4 года 11 месяцев • Статус: Проверено
Скачан: 141 раз • Желающих скачать: 0 • Поблагодарили: 29 раз
 Раздают: 1  |  0 KB/s  ]   Качают: 0  |  0 KB/s  ] 
Сообщения
 Добавлено: 2011-12-07 17:17
Top-seeder
Аватара пользователя
Стаж: 9 лет
Сообщений: 1399
Спасибок: 28651
Лайков: 8
Прирожденный Гонщик / Born to Race

Изображение


Перевод: Профессиональный (многоголосый, закадровый) [лицензия]
Субтитры: Русские, Английские
Формат: BDRip, MKV, H.264, AC3/DTS
Страна: США
Режиссер: Алекс Ранаривело
Жанр: боевик
Продолжительность: 01:38:32
Год выпуска: 2011

В ролях: Джозеф Кросс, Джон Пайпер-Фергюсон, Брандо Итон, Николь Бадаан, Шерри Стрингфилд, Спенсер Бреслин, Кристина Мур, Эрик Кинг, Джоанна Е. Брэдди, Мэтт МакКой

Описание: Рассказ о Дэнни Крюгере, молодом автогонщике, которого на каждом шагу подстерегают неприятности. Участвуя в очередной гонке, он попадает в аварию. Теперь его судьба - жить со своим отцом в небольшом городке. Отец Дэнни, в прошлом гонщик, участвовавший в чемпионатах NASCAR, в силах помочь сыну, когда тот решает принять участие в местных гоночных соревнованиях.

Качество видео: BDRip 720p
Формат: MKV

Видео: 1280x544p (2.35:1), 24,000 fps, AVC MPEG4(x264), High@L4.1 ~4850 kbps avg, 0.290 bit/pixel
Аудио#1: Русский: 48 kHz, AC3 Dolby Digital, 6 ch, ~448 kbps avg [Профессиональный (многоголосый, закадровый)]
Аудио#2: Английский: 48 kHz, DTS , 6 ch, ~1510 kbps avg [Оригинал]

MI
Общее
Уникальный идентификатор : 223189575426504074884423527034808906683 (0xA7E8BFA81C09D04A847ECACF461F33BB)
Полное имя : D:\Закачки\Born to Race (2011).mkv
Формат : Matroska
Размер файла : 4,68 Гбайт
Продолжительность : 1 ч. 38 м.
Общий поток : 6805 Кбит/сек
Название фильма : UNIONGANG.TV -TVB-
Дата кодирования : UTC 2011-12-06 23:44:37
Программа кодирования : mkvmerge v5.0.1 ('Es ist Sommer') built on Oct 9 2011 11:55:43
Библиотека кодирования : libebml v1.2.2 + libmatroska v1.3.0

Видео
Идентификатор : 1
Формат : AVC
Формат/Информация : Advanced Video Codec
Профиль формата : High@L4.1
Параметр CABAC формата : Да
Параметр ReFrames формата : 8 кадров
Параметры GOP формата : M=4, N=48
Идентификатор кодека : V_MPEG4/ISO/AVC
Продолжительность : 1 ч. 38 м.
Вид битрейта : Переменный
Битрейт : 4850 Кбит/сек
Максимальный битрейт : 25,0 Мбит/сек
Ширина : 1280 пикс.
Высота : 544 пикс.
Соотношение сторон : 2,35:1
Частота кадров : 24,000 кадр/сек
Цветовое пространство : YUV
Подвыборка цветности : 4:2:0
Битовая глубина : 8 бит
Тип развёртки : Прогрессивная
Бит/(Пиксели*Кадры) : 0.290
Размер потока : 3,24 Гбайт (69%)
Заголовок : DNL
Библиотека кодирования : x264 core 114 r1924 08d04a4
Настройки программы : cabac=1 / ref=8 / deblock=1:0:0 / analyse=0x3:0x133 / me=umh / subme=7 / psy=1 / psy_rd=1.00:0.00 / mixed_ref=1 / me_range=16 / chroma_me=1 / trellis=1 / 8x8dct=1 / cqm=0 / deadzone=21,11 / fast_pskip=1 / chroma_qp_offset=-2 / threads=6 / sliced_threads=0 / nr=0 / decimate=1 / interlaced=0 / constrained_intra=0 / bframes=3 / b_pyramid=0 / b_adapt=1 / b_bias=0 / direct=1 / weightb=1 / open_gop=0 / weightp=2 / keyint=240 / keyint_min=24 / scenecut=40 / intra_refresh=0 / rc_lookahead=40 / rc=2pass / mbtree=1 / bitrate=4850 / ratetol=1.0 / qcomp=0.60 / qpmin=0 / qpmax=69 / qpstep=4 / cplxblur=20.0 / qblur=0.5 / vbv_maxrate=25000 / vbv_bufsize=25000 / nal_hrd=vbr / ip_ratio=1.40 / aq=1:1.00

Аудио #1
Идентификатор : 2
Формат : AC-3
Формат/Информация : Audio Coding 3
Расширение режима : CM (complete main)
Идентификатор кодека : A_AC3
Продолжительность : 1 ч. 38 м.
Вид битрейта : Постоянный
Битрейт : 448 Кбит/сек
Каналы : 6 каналов
Расположение каналов : Front: L C R, Side: L R, LFE
Частота : 48,0 КГц
Битовая глубина : 16 бит
Метод сжатия : С потерями
Задержка видео : 16 мс.
Размер потока : 316 Мбайт (7%)
Заголовок : MVO R5
Язык : Russian

Аудио #2
Идентификатор : 3
Формат : DTS
Формат/Информация : Digital Theater Systems
Идентификатор кодека : A_DTS
Продолжительность : 1 ч. 38 м.
Вид битрейта : Постоянный
Битрейт : 1510 Кбит/сек
Каналы : 6 каналов
Расположение каналов : Front: L C R, Side: L R, LFE
Частота : 48,0 КГц
Битовая глубина : 24 бит
Метод сжатия : С потерями
Размер потока : 1,04 Гбайт (22%)

Текст #1
Идентификатор : 4
Формат : UTF-8
Идентификатор кодека : S_TEXT/UTF8
Идентификатор кодека/Информация : UTF-8 Plain Text
Заголовок : R5
Язык : Russian

Текст #2
Идентификатор : 5
Формат : UTF-8
Идентификатор кодека : S_TEXT/UTF8
Идентификатор кодека/Информация : UTF-8 Plain Text
Язык : English

Свернуть

Скриншоты
ИзображениеИзображениеИзображениеИзображениеИзображение
Свернуть

Доп. информация: Аудиодорожка с лицензионного издания
Не в сети
Профиль  
 Добавлено: 2014-04-21 19:53 (спустя 2 года 4 месяца)
Стаж: 5 лет 10 месяцев
Сообщений: 16
фильм супер!!! :ti_pa: :ti_pa: :ti_pa:
Не в сети
Профиль  
 Добавлено: 2015-01-18 17:55 (спустя 8 месяцев)
Аватара пользователя
Стаж: 7 лет 1 месяц
Возраст: 24
Сообщений: 7
только вот не раздаёт никто :ze_va_et:
Не в сети
Профиль  
Начать новую темуОтветить на тему  [ Сообщений: 3 ] 
Вы не можете начинать темы
Вы не можете отвечать на сообщения
Вы не можете редактировать свои сообщения
Вы не можете удалять свои сообщения