Правила форума

  • В этом разделе создание новых тем Запрещено.
  • Для создания новых тем пользуйтесь Корневым разделом DVD и HD фильмы.
Начать новую темуОтветить на тему  [ Сообщений: 2 ] 
Торрент файл
Размер: 7.95 GB • Зарегистрирован: 4 года 8 месяцев • Статус: Проверено
Скачан: 55 раз • Желающих скачать: 0 • Поблагодарили: 6 раз
 Раздают: 0  |  0 KB/s  ]   Качают: 0  |  0 KB/s  ] 
 Полного источника не было 3 года 1 месяц 
Сообщения
 Добавлено: 2012-03-25 19:13
Модератор релиз-группы
Аватара пользователя
Стаж: 9 лет 1 месяц
Возраст: 97
Сообщений: 11659
Спасибок: 6532
Лайков: 269
Прирожденный Гонщик / Born to Race


Изображение


Страна: США
Год выпуска: 2011
Жанр: боевик
Продолжительность: 01:38:32
Перевод: Профессиональный (многоголосый, закадровый) [лицензия]
Субтитры: Русские, Английские


Режиссер: Алекс Ранаривело

В ролях: Джозеф Кросс, Джон Пайпер-Фергюсон, Брандо Итон, Николь Бадаан, Шерри Стрингфилд, Спенсер Бреслин, Кристина Мур, Эрик Кинг, Джоанна Е. Брэдди, Мэтт МакКой

Описание: Рассказ о Дэнни Крюгере, молодом автогонщике, которого на каждом шагу подстерегают неприятности. Участвуя в очередной гонке, он попадает в аварию. Теперь его судьба - жить со своим отцом в небольшом городке. Отец Дэнни, в прошлом гонщик, участвовавший в чемпионатах NASCAR, в силах помочь сыну, когда тот решает принять участие в местных гоночных соревнованиях.
Изображение
Качество видео: BDRip 1080p
Формат: MKV
Видео: MPEG4 AVC / 1920x816 / 9351 Kbps / 23.976 fps
Аудио#1: Russian 48 kHz / AC3 / 6 ch / 448 Kbps [Профессиональный (многоголосый, закадровый)]
[b]Аудио#2: [ Englich 48 kHz / DTS / 6 ch / 1510 Kbps [Оригинал]
скриншоты
Изображение

Изображение

Изображение

Изображение
Свернуть
MI
Complete name : F:\Prirozhdennyj.Gonwik.2011.x264.BDRip.(1080p).Goliaf.mkv
Format : Matroska
File size : 7.95 GiB
Duration : 1h 38mn
Overall bit rate : 11.5 Mbps
Movie name : muxed by R.G Goliaf
Encoded date : UTC 2012-03-24 13:14:39
Writing application : mkvmerge v5.2.0 ('I can't explain') built on Dec 18 2011 18:12:03
Writing library : libebml v1.2.3 + libmatroska v1.3.0
Video #1
ID : 1
Format : AVC
Format/Info : Advanced Video Codec
Format profile : High@L4.1
Format settings, CABAC : Yes
Format settings, ReFrames : 5 frames
Muxing mode : Container profile=Unknown@4.1
Codec ID : V_MPEG4/ISO/AVC
Duration : 1h 38mn
Bit rate : 9 351 Kbps
Nominal bit rate : 9 581 Kbps
Width : 1 920 pixels
Height : 816 pixels
Display aspect ratio : 2.35:1
Frame rate : 23.976 fps
Resolution : 24 bits
Colorimetry : 4:2:0
Scan type : Progressive
Bits/(Pixel*Frame) : 0.249
Stream size : 6.44 GiB (81%)
Title : PFa
Writing library : x264 core 120 r2146 bcd41db
Encoding settings : cabac=1 / ref=5 / deblock=1:0:0 / analyse=0x3:0x133 / me=umh / subme=8 / psy=1 / psy_rd=1.00:0.00 / mixed_ref=1 / me_range=16 / chroma_me=1 / trellis=1 / 8x8dct=1 / cqm=0 / deadzone=21,11 / fast_pskip=0 / chroma_qp_offset=-2 / threads=12 / sliced_threads=0 / nr=0 / decimate=1 / interlaced=0 / bluray_compat=0 / constrained_intra=0 / bframes=3 / b_pyramid=2 / b_adapt=1 / b_bias=0 / direct=1 / weightb=1 / open_gop=0 / weightp=2 / keyint=250 / keyint_min=23 / scenecut=40 / intra_refresh=0 / rc_lookahead=40 / rc=2pass / mbtree=1 / bitrate=9581 / ratetol=1.0 / qcomp=0.60 / qpmin=0 / qpmax=69 / qpstep=4 / cplxblur=20.0 / qblur=0.5 / ip_ratio=1.40 / aq=1:1.00
Audio #2
ID : 2
Format : AC-3
Format/Info : Audio Coding 3
Codec ID : A_AC3
Duration : 1h 38mn
Bit rate mode : Constant
Bit rate : 448 Kbps
Channel(s) : 6 channels
Channel positions : Front: L C R, Surround: L R, LFE
Sampling rate : 48.0 KHz
Video delay : 31ms
Stream size : 316 MiB (4%)
Title : MVO
Language : Russian
Audio #3
ID : 3
Format : DTS
Format/Info : Digital Theater Systems
Codec ID : A_DTS
Duration : 1h 38mn
Bit rate mode : Constant
Bit rate : 1 510 Kbps
Channel(s) : 6 channels
Channel positions : Front: L C R, Surround: L R, LFE
Sampling rate : 48.0 KHz
Resolution : 16 bits
Video delay : 11ms
Stream size : 1.04 GiB (13%)
Text #4
ID : 4
Format : UTF-8
Codec ID : S_TEXT/UTF8
Codec ID/Info : UTF-8 Plain Text
Language : Russian
Text #5
ID : 5
Format : UTF-8
Codec ID : S_TEXT/UTF8
Codec ID/Info : UTF-8 Plain Text
Свернуть
_________________
Изображение
Не в сети
Профиль  
 Добавлено: 2012-06-12 00:36 (спустя 2 месяца 17 дней)
Стаж: 8 лет 7 месяцев
Возраст: 25
Сообщений: 17
Видео отстает от аудио дорожки
KMPlayer
Не в сети
Профиль  
Начать новую темуОтветить на тему  [ Сообщений: 2 ] 
Вы не можете начинать темы
Вы не можете отвечать на сообщения
Вы не можете редактировать свои сообщения
Вы не можете удалять свои сообщения