Правила форума

  • В этом разделе создание новых тем Запрещено.
  • Для создания новых тем пользуйтесь Корневым разделом DVD и HD фильмы.
Начать новую темуОтветить на тему  [ 1 сообщение ] 
Торрент файл
Размер: 7.2 GB • Зарегистрирован: 5 лет • Статус: Проверено
Скачан: 85 раз • Желающих скачать: 0 • Поблагодарили: 23 раза
 Раздают: 0  |  0 KB/s  ]   Качают: 0  |  0 KB/s  ] 
 Полного источника не было 1 год 4 месяца 
Сообщения
 Добавлено: 2013-06-23 16:36
Top-releaser
Аватара пользователя
Стаж: 8 лет 7 месяцев
Сообщений: 1286
Спасибок: 3420
Лайков: 7
Прислуга / The Help


«Change begins with a whisper.»

Изображение
Год выпуска: 2011
Страна: США, Индия, ОАЭ
Жанр: драма
Продолжительность: 02:26:14
Перевод: Субтитры, Профессиональный (многоголосый, закадровый)

Режиссер: Тейт Тейлор
Сценарий: Тейт Тейлор, Кэтрин Стокетт
Продюсер: Майкл Барнатан, Крис Коламбус, Брансон Грин, Мохамед Халаф Аль-Мазруи, Марк Рэдклифф
Оператор: Стивен Голдблатт
Композитор: Томас Ньюман

В ролях: Эмма Стоун (Eugenia 'Skeeter' Phelan), Виола Дэвис (Aibileen Clark), Брайс Даллас Ховард (Hilly Holbrook), Октавия Спенсер (Minny Jackson), Джессика Честейн (Celia Foote), Ана О’Райли (Elizabeth Leefolt), Эллисон Джэнни (Charlotte Phelan), Анна Кэмп (Jolene French), Элинор Генри (Mae Mobley), Эмма Генри (Mae Mobley), Крис Лоуэлл (Stuart Whitworth), Сисели Тайсон (Constantine Jefferson)

Описание: Американский Юг, на дворе 1960-е годы. Скитер только-только закончила университет и возвращается домой, в сонный городок Джексон, где никогда ничего не происходит. Она мечтает стать писательницей, вырваться в большой мир. Но для приличной девушки с Юга не пристало тешиться столь глупыми иллюзиями, приличной девушке следует выйти замуж и хлопотать по дому.
Мудрая Эйбилин на тридцать лет старше Скитер, она прислуживает в домах белых всю свою жизнь, вынянчила семнадцать детей и давно уже ничего не ждет от жизни, ибо сердце ее разбито после смерти единственного сына.
Минни - самая лучшая стряпуха во всем Джексоне, а еще она самая дерзкая служанка в городе. И острый язык не раз уже сослужил ей плохую службу. На одном месте Минни никогда подолгу не задерживается. Но с Минни лучше не связываться даже самым высокомерным белым дамочкам. Двух черных служанок и белую неопытную девушку объединяет одно - обостренное чувство справедливости и желание хоть как-то изменить порядок вещей. Смогут ли эти трое противостоять целому миру? Сумеют ли они выжить в этой борьбе?


Релиз: Изображение Раздача: Изображение

Изображение
Изображение

Бюджет: $25 000 000
Сборы в США: $167 933 930
Сборы в мире: $193 633 930
Мировая премьера: 10 августа 2011
Релиз на DVD: 20 марта 2012, «Уолт Дисней Компани СНГ»
Релиз на Blu-ray: 20 марта 2012, «Уолт Дисней Компани СНГ»


Изображение
Качество: BDRip
Формат: Matroska
Видео: AVC; 1280x688 (1.860); 4904 kbps; 23,976 fps; 0,232 bit/pixel
Аудио №1: Russian; AC3; 640 kbps; CBR; 6 channels; 16 bit
Аудио №2: English; DTS; 1509 kbps; CBR; 6 channels; 24 bit

Субтитры №1: Russian
Субтитры №2: Russian
Субтитры №3: English

Изображение
MediaInfo
Общее
Уникальный идентификатор : 184917511659241351562918397183583219765 (0x8B1DD13A3838E5EDA55A8376A21A7035)
Полное имя : E:\Видео\Prisluga.2011.P.BDRip.720p.UNIONGANG.mkv
Формат : Matroska
Версия формата : Version 2
Размер файла : 7,20 Гбайт
Продолжительность : 2 ч. 26 м.
Общий поток : 7051 Кбит/сек
Название фильма : The Help (2011) - Release for Uniongang.tv
Дата кодирования : UTC 2011-11-18 13:03:17
Программа кодирования : mkvmerge v4.9.1 ('Ich will') сборка от Jul 11 2011 23:53:15
Библиотека кодирования : libebml v1.2.1 + libmatroska v1.1.1

Видео
Идентификатор : 1
Формат : AVC
Формат/Информация : Advanced Video Codec
Профиль формата : High@L4.1
Параметр CABAC формата : Да
Параметр ReFrames формата : 5 кадров
Режим смешивания : Header stripping
Идентификатор кодека : V_MPEG4/ISO/AVC
Продолжительность : 2 ч. 26 м.
Битрейт : 4904 Кбит/сек
Ширина : 1280 пикселей
Высота : 688 пикселей
Соотношение сторон : 1,860
Частота кадров : 23,976 кадра/сек
Цветовое пространство : YUV
Субдискретизация насыщенности : 4:2:0
Битовая глубина : 8 бит
Тип развёртки : Прогрессивная
Бит/(Пиксели*Кадры) : 0.232
Размер потока : 4,86 Гбайт (68%)
Заголовок : The Help (2011) - Release for Uniongang.tv
Библиотека кодирования : x264 core 119 r2106 07efeb4
Настройки программы : cabac=1 / ref=5 / deblock=1:0:0 / analyse=0x3:0x133 / me=umh / subme=8 / psy=1 / psy_rd=1.00:0.00 / mixed_ref=1 / me_range=16 / chroma_me=1 / trellis=1 / 8x8dct=1 / cqm=0 / deadzone=21,11 / fast_pskip=0 / chroma_qp_offset=-2 / threads=18 / sliced_threads=0 / nr=0 / decimate=1 / interlaced=0 / bluray_compat=0 / constrained_intra=0 / bframes=3 / b_pyramid=2 / b_adapt=1 / b_bias=0 / direct=1 / weightb=1 / open_gop=0 / weightp=2 / keyint=240 / keyint_min=24 / scenecut=40 / intra_refresh=0 / rc_lookahead=40 / rc=2pass / mbtree=1 / bitrate=4904 / ratetol=1.0 / qcomp=0.60 / qpmin=0 / qpmax=69 / qpstep=4 / cplxblur=20.0 / qblur=0.5 / ip_ratio=1.40 / aq=1:1.00
Язык : English
Default : Да
Forced : Да

Аудио #1
Идентификатор : 2
Формат : AC-3
Формат/Информация : Audio Coding 3
Расширение режима : CM (complete main)
Режим смешивания : Header stripping
Идентификатор кодека : A_AC3
Продолжительность : 2 ч. 26 м.
Вид битрейта : Постоянный
Битрейт : 640 Кбит/сек
Каналы : 6 каналов
Расположение каналов : Front: L C R, Side: L R, LFE
Частота : 48,0 КГц
Битовая глубина : 16 бит
Метод сжатия : С потерями
Размер потока : 669 Мбайт (9%)
Заголовок : DD 5.1 @ 640 kbps - MVO, BD
Язык : Russian
Default : Да
Forced : Да

Аудио #2
Идентификатор : 3
Формат : DTS
Формат/Информация : Digital Theater Systems
Режим смешивания : Header stripping
Идентификатор кодека : A_DTS
Продолжительность : 2 ч. 26 м.
Вид битрейта : Постоянный
Битрейт : 1510 Кбит/сек
Каналы : 6 каналов
Расположение каналов : Front: L C R, Side: L R, LFE
Частота : 48,0 КГц
Битовая глубина : 24 бит
Метод сжатия : С потерями
Размер потока : 1,54 Гбайт (21%)
Заголовок : DTS 5.1 @ 1536 kbps
Язык : English
Default : Нет
Forced : Нет

Текст #1
Идентификатор : 4
Формат : UTF-8
Идентификатор кодека : S_TEXT/UTF8
Идентификатор кодека/Информация : UTF-8 Plain Text
Заголовок : Forced
Язык : Russian
Default : Да
Forced : Да

Текст #2
Идентификатор : 5
Формат : UTF-8
Идентификатор кодека : S_TEXT/UTF8
Идентификатор кодека/Информация : UTF-8 Plain Text
Язык : Russian
Default : Нет
Forced : Нет

Текст #3
Идентификатор : 6
Формат : UTF-8
Идентификатор кодека : S_TEXT/UTF8
Идентификатор кодека/Информация : UTF-8 Plain Text
Язык : English
Default : Нет
Forced : Нет

Меню
00:00:00.000 : :00:00:00.000
00:09:39.870 : :00:09:39.870
00:17:53.781 : :00:17:53.781
00:26:10.986 : :00:26:10.986
00:33:42.145 : :00:33:42.145
00:46:05.679 : :00:46:05.679
00:52:59.092 : :00:52:59.092
01:04:12.723 : :01:04:12.723
01:19:51.119 : :01:19:51.119
01:31:14.051 : :01:31:14.051
01:40:54.673 : :01:40:54.673
01:48:10.525 : :01:48:10.525
01:55:14.115 : :01:55:14.115
02:03:43.707 : :02:03:43.707
02:12:47.000 : :02:12:47.000
02:18:32.679 : :02:18:32.679

Свернуть

Скриншоты

Изображение

Изображение

Изображение

Изображение

Свернуть


Тема поднималась пользователем Shamman 2013-06-23 16:36.
Не в сети
Профиль  
Начать новую темуОтветить на тему  [ 1 сообщение ] 
Вы не можете начинать темы
Вы не можете отвечать на сообщения
Вы не можете редактировать свои сообщения
Вы не можете удалять свои сообщения