Правила форума

  • В этом разделе создание новых тем Запрещено.
  • Для создания новых тем пользуйтесь Корневым разделом DVD и HD фильмы.
Начать новую темуОтветить на тему  [ 1 сообщение ] 
Торрент файл
Размер: 18.15 GB • Зарегистрирован: 3 года 10 месяцев • Статус: Проверено
Скачан: 38 раз • Желающих скачать: 0 • Поблагодарили: 18 раз
 Раздают: 2  |  0 KB/s  ]   Качают: 0  |  0 KB/s  ] 
Сообщения
 Добавлено: 2013-01-30 01:22
Модератор релиз-группы
Аватара пользователя
Стаж: 7 лет 8 месяцев
Возраст: 29
Сообщений: 9789
Спасибок: 23731
Лайков: 103
Изображение

Прислуга
The Help


Год выпуска: 2011
Страна: США, Индия, ОАЭ
Слоган: «Change begins with a whisper.»
Жанр: драма, комедия
Продолжительность:
Перевод: Профессиональный (многоголосый, закадровый)
Режиссер: Тейт Тейлор
Сценарий: Тейт Тейлор, Кэтрин Стокетт
Продюсер: Майкл Барнатан, Крис Коламбус, Брунсон Грин, Мохамед Халаф Аль-Мазруи, Марк Рэдклифф
Оператор: Стивен Голдблатт
Композитор: Томас Ньюман
В ролях: Эмма Стоун, Виола Дэвис, Брайс Даллас Ховард, Октавия Спенсер, Джессика Честейн, Ана О’Райли, Эллисон Дженни, Сисси Спейсек, Сисели Тайсон, Мэри Стинберген, Анна Кэмп, Элинор Генри
Бюджет: $25 000 000
Сборы в США: $169 708 112
Сборы в России: $61 159
Сборы в мире: $211 608 112
Мировая премьера: 9 августа 2011
Релиз на DVD: 27 марта 2012, «Уолт Дисней Компани СНГ»
Релиз на Blu-ray: 27 марта 2012, «Уолт Дисней Компани СНГ»
Описание: Американский Юг, на дворе 1960-е годы. Скитер только-только закончила университет и возвращается домой, в сонный городок Джексон, где никогда ничего не происходит. Она мечтает стать писательницей, вырваться в большой мир. Но для приличной девушки с Юга не пристало тешиться столь глупыми иллюзиями, приличной девушке следует выйти замуж и хлопотать по дому.
Мудрая Эйбилин на тридцать лет старше Скитер, она прислуживает в домах белых всю свою жизнь, вынянчила семнадцать детей и давно уже ничего не ждет от жизни, ибо сердце ее разбито после смерти единственного сына.
Минни - самая лучшая стряпуха во всем Джексоне, а еще она самая дерзкая служанка в городе. И острый язык не раз уже сослужил ей плохую службу. На одном месте Минни никогда подолгу не задерживается. Но с Минни лучше не связываться даже самым высокомерным белым дамочкам. Двух черных служанок и белую неопытную девушку объединяет одно - обостренное чувство справедливости и желание хоть как-то изменить порядок вещей. Смогут ли эти трое противостоять целому миру? Сумеют ли они выжить в этой борьбе?


Изображение User Rating: 8.436 (46 692)
Изображение User Rating: 8.00 (134 157)
MPAA: PG-13 - Детям до 13 лет просмотр не желателен
Раздача группы: Изображение
Качество: BDRip, 1080p
Формат: MKV
Видео: AVC, 15.6 Мбит/с, 1980x1038, 23.976 кадр/с
Аудио №1: русский; АС3, 6 ch, 640 Кбит/с
Аудио №2: DTS, 6 ch, 1536 Кбит/с

Субтитры №1: русские
Субтитры №2: русские
Субтитры №3: английские

mediainfo
Общее
Уникальный идентификатор : 230485623575039208271898871495434190956 (0xAD65EA9A761B7D1CB5DAA8344BF0406C)
Полное имя : D:\TORRENT\The.Help.2011.BluRay.1080p.x264.DTS-HDChina.Rus.Eng.mkv
Формат : Matroska
Размер файла : 18,1 Гбайт
Продолжительность : 2 ч. 26 м.
Общий поток : 17,8 Мбит/сек
Дата кодирования : UTC 2011-11-20 23:30:28
Программа кодирования : mkvmerge v4.8.0 ('I Got The...') сборка от May 24 2011 03:12:58
Библиотека кодирования : libebml v1.2.0 + libmatroska v1.1.0

Видео
Идентификатор : 1
Формат : AVC
Формат/Информация : Advanced Video Codec
Профиль формата : High@L4.1
Параметр CABAC формата : Да
Параметр ReFrames формата : 4 кадра
Идентификатор кодека : V_MPEG4/ISO/AVC
Продолжительность : 2 ч. 26 м.
Битрейт : 15,6 Мбит/сек
Ширина : 1920 пикс.
Высота : 1038 пикс.
Соотношение сторон : 1,850
Частота кадров : 23,976 кадр/сек
Цветовое пространство : YUV
Подвыборка цветности : 4:2:0
Битовая глубина : 8 бит
Тип развёртки : Прогрессивная
Бит/(Пиксели*Кадры) : 0.327
Размер потока : 15,6 Гбайт (86%)
Библиотека кодирования : x264 core 116 r2074 2641b9e
Настройки программы : cabac=1 / ref=4 / deblock=1:-3:-3 / analyse=0x3:0x133 / me=umh / subme=10 / psy=1 / psy_rd=0.85:0.00 / mixed_ref=1 / me_range=64 / chroma_me=1 / trellis=2 / 8x8dct=1 / cqm=0 / deadzone=21,11 / fast_pskip=0 / chroma_qp_offset=-2 / threads=12 / sliced_threads=0 / nr=0 / decimate=0 / interlaced=0 / bluray_compat=0 / constrained_intra=0 / bframes=8 / b_pyramid=2 / b_adapt=2 / b_bias=0 / direct=3 / weightb=1 / open_gop=0 / weightp=2 / keyint=360 / keyint_min=2 / scenecut=40 / intra_refresh=0 / rc_lookahead=60 / rc=2pass / mbtree=1 / bitrate=15615 / ratetol=1.0 / qcomp=0.65 / qpmin=0 / qpmax=69 / qpstep=4 / cplxblur=20.0 / qblur=0.5 / ip_ratio=1.40 / aq=2:0.80
Язык : English

Аудио #1
Идентификатор : 2
Формат : AC-3
Формат/Информация : Audio Coding 3
Расширение режима : CM (complete main)
Идентификатор кодека : A_AC3
Продолжительность : 2 ч. 26 м.
Вид битрейта : Постоянный
Битрейт : 640 Кбит/сек
Каналы : 6 каналов
Расположение каналов : Front: L C R, Side: L R, LFE
Частота : 48,0 КГц
Битовая глубина : 16 бит
Метод сжатия : С потерями
Размер потока : 669 Мбайт (4%)
Заголовок : MVO CEE
Язык : Russian

Аудио #2
Идентификатор : 3
Формат : DTS
Формат/Информация : Digital Theater Systems
Идентификатор кодека : A_DTS
Продолжительность : 2 ч. 26 м.
Вид битрейта : Постоянный
Битрейт : 1510 Кбит/сек
Каналы : 6 каналов
Расположение каналов : Front: L C R, Side: L R, LFE
Частота : 48,0 КГц
Битовая глубина : 24 бит
Метод сжатия : С потерями
Задержка видео : 11 мс.
Размер потока : 1,54 Гбайт (8%)
Язык : English

Текст #1
Идентификатор : 4
Формат : UTF-8
Идентификатор кодека : S_TEXT/UTF8
Идентификатор кодека/Информация : UTF-8 Plain Text
Заголовок : Forced
Язык : Russian

Текст #2
Идентификатор : 5
Формат : UTF-8
Идентификатор кодека : S_TEXT/UTF8
Идентификатор кодека/Информация : UTF-8 Plain Text
Заголовок : Full
Язык : Russian

Текст #3
Идентификатор : 6
Формат : UTF-8
Идентификатор кодека : S_TEXT/UTF8
Идентификатор кодека/Информация : UTF-8 Plain Text
Язык : English

Меню
00:00:00.000 : :00:00:00.000
00:09:39.870 : :00:09:39.870
00:17:53.781 : :00:17:53.781
00:26:10.986 : :00:26:10.986
00:33:42.145 : :00:33:42.145
00:46:05.679 : :00:46:05.679
00:52:59.092 : :00:52:59.092
01:04:12.723 : :01:04:12.723
01:19:51.119 : :01:19:51.119
01:31:14.051 : :01:31:14.051
01:40:54.673 : :01:40:54.673
01:48:10.525 : :01:48:10.525
01:55:14.115 : :01:55:14.115
02:03:43.707 : :02:03:43.707
02:12:47.000 : :02:12:47.000
02:18:32.679 : :02:18:32.679


Свернуть
"Знаете ли Вы, что..."
  • Фильм основан на одноимённом дебютном романе американской писательницы Кэтрин Стокетт, впервые опубликованном 10 февраля 2009 года. На момент выхода фильма за два с половиной года было продано свыше 5 миллионов экземпляров романа.
  • До того как «Прислуга» таки была опубликована, предложенный им роман отвергли как минимум 60 литературных агентов.
  • Друг детства писательницы режиссёр Тэйт Тэйлор получил права на роман ещё до публикации книги.
  • Книжный магазин в фильме Avent & Clark получил своё имя в честь ассистента продюсера Авента Кларка.
  • Фильм 25 дней подряд возглавлял ежедневный американский чарт кассовых сборов. Это была самая длинная такая победная серия с лета 1999 года.
  • Основой для персонажа Минни в романе Кэтрин Стокетт послужила сама Октавия Спенсер, которая была другом детства писательницы. Кроме того она же ещё в 2009 году читала текст в выпущенной тогда одновременно с печатным изданием аудиокниге.
  • Висящие над камином Селии картины были найдены в подвале местного госпиталя. Два кресла из этой же сцены были взяты в магазине подержанной мебели.
  • На роль Селии пробовалась Мелисса Молинаро.
Свернуть
Скриншоты

Изображение
Изображение
Изображение
Изображение
Изображение
Изображение
Изображение
Свернуть
Не в сети
Профиль  
Начать новую темуОтветить на тему  [ 1 сообщение ] 
Вы не можете начинать темы
Вы не можете отвечать на сообщения
Вы не можете редактировать свои сообщения
Вы не можете удалять свои сообщения