Правила форума

  • В этом разделе создание новых тем Запрещено.
  • Для создания новых тем пользуйтесь Корневым разделом DVD и HD фильмы.
Начать новую темуОтветить на тему  [ 1 сообщение ] 
Торрент файл
Размер: 10.72 GB • Зарегистрирован: 5 лет 10 месяцев • Статус: Проверено
Скачан: 48 раз • Желающих скачать: 0 • Поблагодарили: 8 раз
 Раздают: 0  |  0 KB/s  ]   Качают: 0  |  0 KB/s  ] 
 Полного источника не было 1 час 45 минут 
Сообщения
 Добавлено: 2011-01-08 16:55
Аватара пользователя
Стаж: 8 лет 2 месяца
Возраст: 26
Сообщений: 131
Спасибок: 198
Лайков: 2
Изображение

Пристрели их
Shoot 'Em Up
«Ни имени, ни прошлого... и нечего терять»


Год выпуска: 2007
Страна: США
Жанр: боевик, триллер, комедия, приключения, криминал
Продолжительность: 01:26:32
Перевод: Профессиональный (многоголосый, закадровый), Профессиональный (полное дублирование), Авторский (одноголосый)_x2
Русские субтитры: есть

Режиссер: Майкл Дэвис / Michael Davis
Сценарий: Майкл Дэвис / Michael Davis
Продюсер: Рик Бенаттар / Rick Benattar, Кейл Бойтер / Cale Boyter, Дуглас Кертис / Douglas Curtis, Тоби Эммерих / Toby Emmerich, Джефф Кац / Jeff Katz
Оператор: Питер Пау / Peter Pau
Композитор: Пол Хаслингер / Paul Haslinger

В ролях: Клайв Оуэн (Smith), Пол Джаматти (Hertz), Моника Беллуччи (Donna Quintano), Стивен МакХэтти (Hammerson), Грег Брайк (Lone Man), Дэниэл Пилон (Senator Rutledge), Сидни Менде-Гибсон (Baby Oliver), Лукас Менде-Гибсон (Baby Oliver), Кейлин Йеллоулис (Baby Oliver), Рамона Прингл (Baby's Mother), Джулиан Ричингс (Hertz's Driver), Тони Манч (Man Who Rides Shotgun)
Дублёры: Александр Груздев (Smith), Никита Прозоровский (Hertz), Дальвин Щербаков (Hammerson), Илья Хвостиков (Lone Man), Александр Новиков (Senator Rutledge), Борис Репетур (Hertz's Driver)

Описание: Изгой, живущий воспоминаниями о собственном трагическом прошлом, спасает от верной смерти грудного младенца, оказавшись впутанным в правительственный заговор. Вместе с проституткой, ублажающей фантазии клиентов о грудном вскармливании и берущей на себя заботу о малыше, герой отсчитывает последние деньки двух коррумпированных чиновников.

Изображение
Изображение
MPAA: Изображение - Лицам до 17 лет обязательно присутствие взрослого

Бюджет: $39 000 000
Сборы в США: $12 807 139
Сборы в России: $1 038 500
Сборы в мире: $26 718 550

Премьера (мир): 26 июля 2007
Премьера (РФ): 25 октября 2007, «Каро-Премьер»
Релиз на DVD: 15 июня 2009, «Юниверсал Пикчерс Рус»

Качество: BDRip
Формат: MKV

Видео: AVC; 1920x816 (2.35:1); ~13.1 Mbps; 23,976 fps; 0,340 bpp
Аудио №1: Russian; AC3; 448 Kbps; 48.0 KHz; 6 ch - (Дубляж)
Аудио №2: Russian; DTS; 754 Kbps; 48.0 KHz; 6 ch - (Многоголоска "Кравец")
Аудио №3: Russian; DTS; 1509 Kbps; 48.0 KHz; 6 ch - (Авторский Д. Строев)
Аудио №4: Russian; AC3; 384 Kbps; 48.0 KHz; 6 ch - (Авторский А. Королев)
Аудио №5: DTS; 1509 Kbps; 48.0 KHz; 6 ch
Субтитры: Russian_x6 (R5, Строев, voronine, Antar, Bogdan Usenko, sunny-sko), English

Знаете ли вы, что...
Съёмки проходили с 13 февраля 2006 года в Торонто.
Свернуть
Скриншоты
Изображение
Изображение
Изображение
Изображение
Изображение
Свернуть
MediaInfo
General
Complete name : G:\ut\Shoot.Em.Up.2007.BDRip.1080p.Rus_x4.Eng.multisubs.x264.dxva-VIAgra.mkv
Format : Matroska
File size : 10.7 GiB
Duration : 1h 26mn
Overall bit rate : 17.7 Mbps
Encoded date : UTC 2010-06-16 12:08:29
Writing application : mkvmerge v4.0.0 ('The Stars were mine') сборка от Jun 6 2010 16:18:42
Writing library : libebml v1.0.0 + libmatroska v1.0.0

Video
ID : 1
Format : AVC
Format/Info : Advanced Video Codec
Format profile : High@L4.1
Format settings, CABAC : Yes
Format settings, ReFrames : 5 frames
Codec ID : V_MPEG4/ISO/AVC
Duration : 1h 26mn
Bit rate : 13.1 Mbps
Width : 1 920 pixels
Height : 816 pixels
Display aspect ratio : 2.35:1
Frame rate : 23.976 fps
Color space : YUV
Chroma subsampling : 4:2:0
Bit depth : 8 bits
Scan type : Progressive
Bits/(Pixel*Frame) : 0.350
Stream size : 7.72 GiB (72%)
Title : x264.dxva-VIAgra
Writing library : x264 core 98 r1629 2e81ce1
Encoding settings : cabac=1 / ref=5 / deblock=1:-3:-3 / analyse=0x3:0x113 / me=esa / subme=10 / psy=1 / psy_rd=0.95:0.05 / mixed_ref=1 / me_range=32 / chroma_me=1 / trellis=2 / 8x8dct=1 / cqm=0 / deadzone=21,11 / fast_pskip=0 / chroma_qp_offset=-3 / threads=6 / sliced_threads=0 / nr=0 / decimate=0 / interlaced=0 / constrained_intra=0 / bframes=8 / b_pyramid=2 / b_adapt=2 / b_bias=0 / direct=3 / weightb=1 / weightp=2 / keyint=250 / keyint_min=25 / scenecut=40 / intra_refresh=0 / rc_lookahead=80 / rc=2pass / mbtree=1 / bitrate=13144 / ratetol=1.0 / qcomp=0.70 / qpmin=10 / qpmax=51 / qpstep=4 / cplxblur=20.0 / qblur=0.5 / vbv_maxrate=50000 / vbv_bufsize=62500 / ip_ratio=1.40 / aq=1:0.80 / nal_hrd=none
Language : English

Audio #1
ID : 2
Format : AC-3
Format/Info : Audio Coding 3
Mode extension : CM (complete main)
Codec ID : A_AC3
Duration : 1h 26mn
Bit rate mode : Constant
Bit rate : 448 Kbps
Channel(s) : 6 channels
Channel positions : Front: L C R, Side: L R, LFE
Sampling rate : 48.0 KHz
Bit depth : 16 bits
Stream size : 277 MiB (3%)
Title : AC3; 448 Kbps @ 5.1 ch - (Dub)
Language : Russian

Audio #2
ID : 3
Format : DTS
Format/Info : Digital Theater Systems
Codec ID : A_DTS
Duration : 1h 26mn
Bit rate mode : Constant
Bit rate : 755 Kbps
Channel(s) : 6 channels
Channel positions : Front: L C R, Side: L R, LFE
Sampling rate : 48.0 KHz
Bit depth : 24 bits
Stream size : 467 MiB (4%)
Title : DTS; 754 Kbps @ 5.1 - (Mnogogoloska) "Kravec"
Language : Russian

Audio #3
ID : 4
Format : DTS
Format/Info : Digital Theater Systems
Codec ID : A_DTS
Duration : 1h 26mn
Bit rate mode : Constant
Bit rate : 1 510 Kbps
Channel(s) : 6 channels
Channel positions : Front: L C R, Side: L R, LFE
Sampling rate : 48.0 KHz
Bit depth : 24 bits
Stream size : 935 MiB (9%)
Title : DTS; 1509 Kbps @ 5.1 ch - (AVO) D. Stroev
Language : Russian

Audio #4
ID : 5
Format : AC-3
Format/Info : Audio Coding 3
Mode extension : CM (complete main)
Codec ID : A_AC3
Duration : 1h 26mn
Bit rate mode : Constant
Bit rate : 384 Kbps
Channel(s) : 6 channels
Channel positions : Front: L C R, Side: L R, LFE
Sampling rate : 48.0 KHz
Bit depth : 16 bits
Stream size : 238 MiB (2%)
Title : AC3; 384 Kbps @ 5.1 ch - (AVO) A.Korolev
Language : Russian

Audio #5
ID : 6
Format : DTS
Format/Info : Digital Theater Systems
Codec ID : A_DTS
Duration : 1h 26mn
Bit rate mode : Constant
Bit rate : 1 510 Kbps
Channel(s) : 6 channels
Channel positions : Front: L C R, Side: L R, LFE
Sampling rate : 48.0 KHz
Bit depth : 24 bits
Stream size : 935 MiB (9%)
Title : DTS; 1509 Kbps @ 5.1 ch
Language : English

Text #1
ID : 7
Format : UTF-8
Codec ID : S_TEXT/UTF8
Codec ID/Info : UTF-8 Plain Text
Title : R5
Language : Russian

Text #2
ID : 8
Format : UTF-8
Codec ID : S_TEXT/UTF8
Codec ID/Info : UTF-8 Plain Text
Title : D. Stroev
Language : Russian

Text #3
ID : 9
Format : UTF-8
Codec ID : S_TEXT/UTF8
Codec ID/Info : UTF-8 Plain Text
Title : voronine
Language : Russian

Text #4
ID : 10
Format : UTF-8
Codec ID : S_TEXT/UTF8
Codec ID/Info : UTF-8 Plain Text
Title : Antar
Language : Russian

Text #5
ID : 11
Format : UTF-8
Codec ID : S_TEXT/UTF8
Codec ID/Info : UTF-8 Plain Text
Title : Bogdan Usenko
Language : Russian

Text #6
ID : 12
Format : UTF-8
Codec ID : S_TEXT/UTF8
Codec ID/Info : UTF-8 Plain Text
Title : sunny-sko
Language : Russian

Text #7
ID : 13
Format : UTF-8
Codec ID : S_TEXT/UTF8
Codec ID/Info : UTF-8 Plain Text
Language : English

Menu
00:00:00.000 : en:Main Titles
00:07:57.977 : en:A Fine Mess
00:09:22.436 : en:Restroom Rumble
00:12:20.114 : en:Round and Round
00:15:10.910 : en:Mother Figure
00:22:51.370 : en:Road Rage
00:26:10.944 : en:Shopping
00:29:57.420 : en:Homebase Invasion
00:36:40.323 : en:Heavy Metal Clinic
00:41:30.613 : en:Bedtime
00:50:00.497 : en:A Visit to Hammerson
00:57:19.686 : en:Asphalt Showdown
01:03:01.903 : en:The Unfriendly Skies
01:09:29.165 : en:Considerable Agony
01:17:20.260 : en:Epilogue
01:19:52.913 : en:End Credits
Свернуть
Не в сети
Профиль  
Начать новую темуОтветить на тему  [ 1 сообщение ] 
Вы не можете начинать темы
Вы не можете отвечать на сообщения
Вы не можете редактировать свои сообщения
Вы не можете удалять свои сообщения