Правила форума

  • В этом разделе создание новых тем Запрещено.
  • Для создания новых тем пользуйтесь Корневым разделом DVD и HD фильмы.
Начать новую темуОтветить на тему  [ Сообщений: 2 ] 
Торрент файл
Размер: 24.16 GB • Зарегистрирован: 5 лет 4 месяца • Статус: Проверено
Скачан: 21 раз • Желающих скачать: 0 • Поблагодарили: 4 раза
 Раздают: 0  |  0 KB/s  ]   Качают: 0  |  0 KB/s  ] 
 Полного источника не было 3 года 2 месяца 
Сообщения
 Добавлено: 2011-07-13 22:26
Книголюб
Аватара пользователя
Стаж: 7 лет 2 месяца
Сообщений: 2823
Спасибок: 48825
Лайков: 73
Притворись моей женой
Just Go with It

Изображение


Год выпуска: 2011
Страна: США
Слоган: «Иногда, чтобы влюбиться, нужно... жениться»
Жанр: мелодрама, комедия
Продолжительность: 01:41
Перевод: Проф. (полное дублирование)

Режиссёр: Деннис Дуган
В ролях: Адам Сэндлер, Дженнифер Энистон, Николь Кидман, Ник Свардсон, Бруклин Декер, Бэйли Мэдисон, Дэйв Мэтьюз, Рэйчел Дрэч, Кевин Нилон, Аллен Коверт
Описание: Главный герой Дэнни встретил Палмер, и чтобы произвести впечатление, рассказал о своей несуществующей жене и тяготах семейной жизни. Вместо ожидаемого сочувствия, Палмер хочет познакомиться с его женой, и Дэнни необходимо срочно придумать, как выпутаться из столь интересного положения. К счастью, у него есть знакомая коллега Кэтрин, обаятельная и с детьми, которые и сыграют на время роль его семьи.
Рейтинг MPAA: Рейтинг PG-13 (Дети до 13 лет допускаются на фильм только с родителями)
Мировая премьера: 8 февраля 2011,
Бюджет: $80 000 000
Кассовые сборы: $213 942 730
Изображение

Качество: Blu-Ray
Формат: M2TS
Видео кодек: H.26x
Аудио кодек: AC3 (Dolby Digital)
Видео: 1920x1080,24.6 Mbps,23.976 fps, 0.524Bits/Pixel
Аудио:112345Аудио 1: Russian:48 kHz, AC3, 3/2 (L,C,R,l,r) + LFE ch, ~448.00 kbps avg
Аудио 2: Ukrainian:48 kHz, AC3, 3/2 (L,C,R,l,r) + LFE ch, ~448.00 kbps avg
Аудио 3: English / DTS-HD Master Audio / 5.1 / 48 kHz / 2848 kbps / 24-bit (DTS Core: 5.1 / 48 kHz / 1509 kbps / 24-bit)
Аудио 4: English: 48 kHz, AC3, 2/0 (L,R) ch, ~192 Kbps.00 kbps avg |Commentary|
Аудио 5: English: 48 kHz, AC3, 2/0 (L,R) ch, ~192 Kbps.00 kbps avg |Commentary|
MediaInfo
General
ID : 1 (0x1)
Complete name : J:\Pritvoris.moej.zhenoj.2011.MPEG-4-AVC.BluRay-Remux(1080p)-Kinozal.TV-HD\BDMV\STREAM\Pritvoris.moej.zhenoj.2011.m2ts
Format : BDAV
Format/Info : Blu-ray Video
File size : 24.2 GiB
Duration : 1h 56mn
Overall bit rate : 29.7 Mbps
Maximum Overall bit rate : 35.5 Mbps

Video
ID : 4113 (0x1011)
Menu ID : 1 (0x1)
Format : AVC
Format/Info : Advanced Video Codec
Format profile : High@L4.1
Format settings, CABAC : Yes
Format settings, ReFrames : 2 frames
Format settings, GOP : M=2, N=20
Codec ID : 27
Duration : 1h 56mn
Bit rate mode : Variable
Bit rate : 26.0 Mbps
Width : 1 920 pixels
Height : 1 080 pixels
Display aspect ratio : 16:9
Frame rate : 23.976 fps
Color space : YUV
Chroma subsampling : 4:2:0
Bit depth : 8 bits
Scan type : Progressive
Bits/(Pixel*Frame) : 0.524
Stream size : 21.2 GiB (88%)

Audio #1
ID : 4352 (0x1100)
Menu ID : 1 (0x1)
Format : AC-3
Format/Info : Audio Coding 3
Mode extension : CM (complete main)
Codec ID : 129
Duration : 1h 56mn
Bit rate mode : Constant
Bit rate : 448 Kbps
Channel(s) : 6 channels
Channel positions : Front: L C R, Side: L R, LFE
Sampling rate : 48.0 KHz
Bit depth : 16 bits
Compression mode : Lossy
Stream size : 373 MiB (2%)
Language : Russian

Audio #2
ID : 4353 (0x1101)
Menu ID : 1 (0x1)
Format : AC-3
Format/Info : Audio Coding 3
Mode extension : CM (complete main)
Codec ID : 129
Duration : 1h 56mn
Bit rate mode : Constant
Bit rate : 448 Kbps
Channel(s) : 6 channels
Channel positions : Front: L C R, Side: L R, LFE
Sampling rate : 48.0 KHz
Bit depth : 16 bits
Compression mode : Lossy
Stream size : 373 MiB (2%)
Language : Ukrainian

Audio #3
ID : 4354 (0x1102)
Menu ID : 1 (0x1)
Format : DTS
Format/Info : Digital Theater Systems
Format profile : MA / Core
Muxing mode : Stream extension
Codec ID : 134
Duration : 1h 56mn
Bit rate mode : Variable
Bit rate : 1 561 Kbps / 1 510 Kbps
Channel(s) : 6 channels
Channel positions : Front: L C R, Side: L R, LFE
Sampling rate : 48.0 KHz
Bit depth : 24 bits
Compression mode : Lossless / Lossy
Language : English


Свернуть

Скриншоты
Изображение
Изображение
Изображение
Изображение
Изображение
Свернуть


Последний раз редактировалось coldun 2011-07-13 22:42, всего редактировалось 1 раз.
Не в сети
Профиль  
 Добавлено: 2011-07-13 22:29 (спустя 3 минуты)
Аватара пользователя
Стаж: 5 лет 5 месяцев
Возраст: 23
Сообщений: 484
Спасибок: 1403
Лайков: 1
фильм прикольный и смешной..Советую посмотреть :)
Не в сети
Профиль  
Начать новую темуОтветить на тему  [ Сообщений: 2 ] 
Вы не можете начинать темы
Вы не можете отвечать на сообщения
Вы не можете редактировать свои сообщения
Вы не можете удалять свои сообщения