Правила форума

  • В этом разделе создание новых тем Запрещено.
  • Для создания новых тем пользуйтесь Корневым разделом DVD и HD фильмы.
Начать новую темуОтветить на тему  [ Сообщений: 3 ] 
Торрент файл
Размер: 17.82 GB • Зарегистрирован: 4 года 4 месяца • Статус: Проверено
Скачан: 75 раз • Желающих скачать: 0 • Поблагодарили: 9 раз
 Раздают: 0  |  0 KB/s  ]   Качают: 0  |  0 KB/s  ] 
 Полного источника не было 1 год 3 месяца 
Сообщения
 Добавлено: 2012-07-18 18:43
Модератор релиз-группы
Аватара пользователя
Стаж: 9 лет 1 месяц
Возраст: 97
Сообщений: 11659
Спасибок: 6530
Лайков: 269
Притворись моим мужем / You May Not Kiss the Bride

Изображение

Год выпуска: 2011
Страна: США
Жанр: мелодрама, комедия, приключения
Продолжительность: 01:40:10
Перевод: Многоголосый закадровый [Лицензия]

Режиссер: Роб Хедден

В ролях: Дэйв Эннэйбл, Кэтрин МакФи, Роб Шнайдер, Мена Сувари, Кэти Бейтс, Кен Давитян, Тиа Каррере, Кевин Данн, Винни Джонс, Стивен Тоболовски

Описание :
Скромному фотографу Брайану Лайтхаусу не повезло. Совершенно неожиданно он оказался в долгу перед обосновавшимся в США хорватским криминальным авторитетом Вадиком Никитиным. Теперь Брайану нужно жениться на дочери бандита Маше, чтобы та смогла беспрепятственно получить американское гражданство, а потом спокойно развестись.
Есть и другое условие: брак — браком, но к невесте горе-жених и пальцем не должен прикасаться. И это самая непростая часть договора, потому что девушка — ослепительная красавица. Дело осложняется и тем, что во время медового месяца на далеком экзотическом острове новоиспеченную жену похищают неизвестные. Ее возвращение становится для Брайана вопросом жизни и смерти…
Изображение
Качество : BDRemux
Контейнер: MKV
Видео: 1920x1080, ~25,1 Мбит/сек (1080p, 24,000 fps, 16:9, High @L4.1)
Аудио1: DTS 5.1, 755 Кбит/сек, 48.0 KГц, 16 бит - Русский многоголосый закадровый
Аудио2: DTS 5.1, ~1510 Кбит/сек, 48.0 KГц, 24 бит - English
скриншоты
Изображение

Изображение

Изображение
Свернуть
Mi
Format : Matroska
Format version : Version 2
File size : 17.8 GiB
Duration : 1h 40mn
Overall bit rate mode : Variable
Overall bit rate : 25.5 Mbps
Encoded date : UTC 2012-07-18 15:22:19
Writing application : mkvmerge v5.7.0 ('The Whirlwind') built on Jul 8 2012 20:08:51
Writing library : libebml v1.2.3 + libmatroska v1.3.0

Video
ID : 1
Format : AVC
Format/Info : Advanced Video Codec
Format profile : High@L4.1
Format settings, CABAC : Yes
Format settings, ReFrames : 3 frames
Codec ID : V_MPEG4/ISO/AVC
Duration : 1h 40mn
Bit rate mode : Variable
Bit rate : 22.7 Mbps
Maximum bit rate : 28.7 Mbps
Width : 1 920 pixels
Height : 1 080 pixels
Display aspect ratio : 16:9
Frame rate : 24.000 fps
Standard : NTSC
Color space : YUV
Chroma subsampling : 4:2:0
Bit depth : 8 bits
Scan type : Progressive
Bits/(Pixel*Frame) : 0.456
Stream size : 15.9 GiB (89%)
Language : English
Default : Yes
Forced : No
Color primaries : BT.709-5, BT.1361, IEC 61966-2-4, SMPTE RP177
Transfer characteristics : BT.709-5, BT.1361
Matrix coefficients : BT.709-5, BT.1361, IEC 61966-2-4 709, SMPTE RP177

Audio #1
ID : 2
Format : DTS
Format/Info : Digital Theater Systems
Codec ID : A_DTS
Duration : 1h 40mn
Bit rate mode : Constant
Bit rate : 755 Kbps
Channel(s) : 6 channels
Channel positions : Front: L C R, Side: L R, LFE
Sampling rate : 48.0 KHz
Bit depth : 16 bits
Compression mode : Lossy
Stream size : 541 MiB (3%)
Language : Russian
Default : Yes
Forced : No

Audio #2
ID : 3
Format : DTS
Format/Info : Digital Theater Systems
Codec ID : A_DTS
Duration : 1h 40mn
Bit rate mode : Constant
Bit rate : 1 510 Kbps
Channel(s) : 6 channels
Channel positions : Front: L C R, Side: L R, LFE
Sampling rate : 48.0 KHz
Bit depth : 24 bits
Compression mode : Lossy
Stream size : 1.06 GiB (6%)
Language : English
Default : No
Forced : No

Свернуть
_________________
Изображение
Не в сети
Профиль  
 Добавлено: 2012-07-26 19:26 (спустя 8 дней)
Аватара пользователя
Стаж: 8 лет 1 месяц
Сообщений: 161
Спасибок: 231
русский стандарт там мафиози в ресторане пили))
Не в сети
Профиль  
 Добавлено: 2012-07-31 21:22 (спустя 5 дней)
Стаж: 6 лет 5 месяцев
Сообщений: 175
Лайков: 2
Спасибо,фильм прикольный качество картинки на высоте по большому ЖК монстру просто супер,а 1280 на 720р есть нам бы в коллекцию.Спасибо.
Не в сети
Профиль  
Начать новую темуОтветить на тему  [ Сообщений: 3 ] 
Вы не можете начинать темы
Вы не можете отвечать на сообщения
Вы не можете редактировать свои сообщения
Вы не можете удалять свои сообщения