Правила форума

  • В этом разделе создание новых тем Запрещено.
  • Для создания новых тем пользуйтесь Корневым разделом DVD и HD фильмы.
Начать новую темуОтветить на тему  [ Сообщений: 4 ] 
Торрент файл
Размер: 9.17 GB • Зарегистрирован: 3 года 2 месяца • Статус: Проверено
Скачан: 242 раза • Желающих скачать: 0 • Поблагодарили: 68 раз
 Раздают: 0  |  0 KB/s  ]   Качают: 0  |  0 KB/s  ] 
 Полного источника не было 2 дня 4 часа 
Сообщения
 Добавлено: 2013-09-23 02:50
Аватара пользователя
Стаж: 9 лет 1 месяц
Сообщений: 7940
Спасибок: 122160
Лайков: 1191
Притворись моим парнем / 20 ans d'écart

«Проблемы с карьерой? Есть решение!»

Изображение


Год выпуска: 2013
Страна: Изображение Франция
Жанр: комедия
Продолжительность: 01:32:36
Перевод: Профессиональный (полное дублирование) [Лицензия]


Режиссер: Давид Моро
Сценарий: Амро Хамзави, Давид Моро
Продюсер: Кристофер Ламберт, Абель Намиас
Оператор: Лорен Танги
Композитор: Гийом Пассел

В ролях: Вирджиния Эфира, Пьер Нинэ, Шарль Берлинг, Жиль Коэн, Амели Гленн, Камила Джепи, Микаэль Абитбуль, Камиль Пелисье, Женна Азулай, Луи-До де Ланкесэ

Описание: У редактора модного глянцевого журнала Алисы Лантенс безупречный вкус, отличное резюме и репутация «железной леди». Но однажды начальство намекает, что возглавлять молодежное издание должен кто-то более смелый и провокативный. Решение приходит неожиданно: по нелепой случайности по миру шоу-бизнеса разносится слух о ее романе с 18-летним студентом. Оказывается, что подмоченная репутация — именно то, что нужно для продвижения по карьерной лестнице! Но куда деваться от парня, который и вправду влюбился?

Изображение Изображение

Раздача группы: Изображение

Качество: BDRip (1080p)
Формат: Matroska
Видео: MPEG-4 AVC, 12.3 Мбит/с, 1920x804
Аудио №1: Русский (AC3, 48,0 КГц, 6 ch, 384 Кбит/c)
Аудио №2: Французский (DTS, 48,0 КГц, 6 ch, 1510 Кбит/c)

MediaInfo
Общее
Уникальный идентификатор : 205396881243901935846114011188359953410 (0x9A86001AAEA448C2BA99708BC2757C02)
Полное имя : C:\Фильмы\20.ANS.D'ECART.2013.BDRip.1080p.R.G.Daredevil.mkv
Формат : Matroska
Версия формата : Version 2
Размер файла : 9,17 Гбайт
Продолжительность : 1 ч. 32 м.
Общий поток : 14,2 Мбит/сек
Название фильма : -=Release for NNM-CLUB.RU=-
Дата кодирования : UTC 2013-09-22 20:14:32
Программа кодирования : mkvmerge v2.9.9 ('Tutu') built on Nov 25 2009 21:13:32
Библиотека кодирования : libebml v0.7.9 + libmatroska v0.8.1

Видео
Идентификатор : 1
Формат : AVC
Формат/Информация : Advanced Video Codec
Профиль формата : High@L4.1
Параметр CABAC формата : Да
Параметр ReFrames формата : 5 кадров
Идентификатор кодека : V_MPEG4/ISO/AVC
Продолжительность : 1 ч. 32 м.
Битрейт : 12,3 Мбит/сек
Ширина : 1920 пикселей
Высота : 804 пикселя
Соотношение сторон : 2,40:1
Режим частоты кадров : Постоянный
Частота кадров : 24,000 кадра/сек
Цветовое пространство : YUV
Субдискретизация насыщенности : 4:2:0
Битовая глубина : 8 бит
Тип развёртки : Прогрессивная
Бит/(Пиксели*Кадры) : 0.332
Размер потока : 7,77 Гбайт (85%)
Заголовок : 20.ANS.D'ECART.2013.BDRip.1080p.NNM-CLUB.GIU
Библиотека кодирования : x264 core 133 r2334 a3ac64b
Настройки программы : cabac=1 / ref=5 / deblock=1:-3:-3 / analyse=0x3:0x113 / me=umh / subme=11 / psy=1 / psy_rd=1.00:0.50 / mixed_ref=1 / me_range=48 / chroma_me=1 / trellis=2 / 8x8dct=1 / cqm=0 / deadzone=21,11 / fast_pskip=1 / chroma_qp_offset=-4 / threads=12 / lookahead_threads=2 / sliced_threads=0 / nr=0 / decimate=0 / interlaced=0 / bluray_compat=0 / constrained_intra=0 / bframes=8 / b_pyramid=2 / b_adapt=2 / b_bias=0 / direct=3 / weightb=1 / open_gop=0 / weightp=2 / keyint=240 / keyint_min=24 / scenecut=50 / intra_refresh=0 / rc_lookahead=50 / rc=2pass / mbtree=1 / bitrate=12300 / ratetol=1.0 / qcomp=0.80 / qpmin=0 / qpmax=69 / qpstep=4 / cplxblur=20.0 / qblur=0.5 / vbv_maxrate=62500 / vbv_bufsize=78125 / nal_hrd=none / ip_ratio=1.40 / aq=1:1.00
Язык : English
Default : Нет
Forced : Нет

Аудио #1
Идентификатор : 2
Формат : AC-3
Формат/Информация : Audio Coding 3
Расширение режима : CM (complete main)
Параметр Endianness формата : Big
Идентификатор кодека : A_AC3
Продолжительность : 1 ч. 32 м.
Вид битрейта : Постоянный
Битрейт : 384 Кбит/сек
Каналы : 6 каналов
Расположение каналов : Front: L C R, Side: L R, LFE
Частота : 48,0 КГц
Битовая глубина : 16 бит
Метод сжатия : С потерями
Размер потока : 254 Мбайт (3%)
Заголовок : AC3.384Kbps (6ch) Russian (Дубляж)
Язык : Russian
Default : Да
Forced : Нет

Аудио #2
Идентификатор : 3
Формат : DTS
Формат/Информация : Digital Theater Systems
Режим : 16
Параметр Endianness формата : Big
Идентификатор кодека : A_DTS
Продолжительность : 1 ч. 32 м.
Вид битрейта : Постоянный
Битрейт : 1509 Кбит/сек
Каналы : 6 каналов
Расположение каналов : Front: L C R, Side: L R, LFE
Частота : 48,0 КГц
Битовая глубина : 24 бит
Метод сжатия : С потерями
Размер потока : 999 Мбайт (11%)
Заголовок : DTS.1509.Kbps (6ch) French
Язык : French
Default : Нет
Forced : Нет

Меню
00:00:00.000 : en:Chapter 00
00:07:29.625 : en:Chapter 01
00:13:56.083 : en:Chapter 02
00:21:12.625 : en:Chapter 03
00:28:49.916 : en:Chapter 04
00:37:18.875 : en:Chapter 05
00:45:08.958 : en:Chapter 06
00:53:21.583 : en:Chapter 07
01:02:53.875 : en:Chapter 08
01:11:13.916 : en:Chapter 09
01:19:59.000 : en:Chapter 10
01:26:44.875 : en:Chapter 11
Свернуть
Скриншоты
Изображение
Изображение
Изображение
Изображение
Свернуть
Не в сети
Профиль  
 Добавлено: 2013-09-23 22:01 (спустя 19 часов)
Стаж: 3 года 10 месяцев
Сообщений: 187
Лайков: 61
Хороший фильм! Советую к просмотру! Всегда захватывают фильмы, в которых складывается роман между молодым парнем и женщиной, красивой женщиной, которая почти вдвое старше него и этот фильм именно об этом. Вообщем классный фильм! Побольше бы таких...фильмов и красивых женщин, желающих нас, молодых парней, взаимно желающих таких роскошных зрелых дам )))
Не в сети
Профиль  
 Добавлено: 2013-09-28 12:55 (спустя 4 дня)
Кинокомментатор
Аватара пользователя
Стаж: 9 лет 1 месяц
Сообщений: 1332
Лайков: 54
:-) текст молодого человека чуть выше обрисовал посыл кинохи)))
ну а тем кто ещё думает смотреть или нет? в кино есть наркотики, пошлятина, секс, и всякие штуки подобного рода) Франция всё таки))) 7/10
_________________
Я ВКонтакте
Не в сети
Профиль  
 Добавлено: 2013-09-29 21:41 (спустя 1 день 8 часов)
Аватара пользователя
Стаж: 8 лет 2 месяца
Возраст: 23
Сообщений: 1671
Спасибок: 320
Лайков: 2
:) спасибо, приятный фильм.




MILF
_________________
sumsumsumsum sumsum
Не в сети
Профиль  
Начать новую темуОтветить на тему  [ Сообщений: 4 ] 
Вы не можете начинать темы
Вы не можете отвечать на сообщения
Вы не можете редактировать свои сообщения
Вы не можете удалять свои сообщения