Правила форума

  • В этом разделе создание новых тем Запрещено.
  • Для создания новых тем пользуйтесь Корневым разделом DVD и HD фильмы.
Начать новую темуОтветить на тему  [ Сообщений: 2 ] 
Торрент файл
Размер: 4.83 GB • Зарегистрирован: 5 лет • Статус: Проверено
Скачан: 20 раз • Желающих скачать: 0 • Поблагодарили: 9 раз
 Раздают: 0  |  0 KB/s  ]   Качают: 0  |  0 KB/s  ] 
 Полного источника не было 1 год 7 месяцев 
Сообщения
 Добавлено: 2011-12-06 21:36
Top-seeder
Аватара пользователя
Стаж: 9 лет
Сообщений: 1399
Спасибок: 28652
Лайков: 8
Признания опасного человека
Confessions Of A Dangerous Mind


Изображение


Год выпуска: 2002
Страна: США
Жанр: триллер, драма, комедия, криминал, биография
Продолжительность: 01:53:33
Перевод:
- профессиональный (полное дублирование)
- двухголосый закадровый

Субтитры: русские, английские

Режиссер: Джордж Клуни / George Clooney

В ролях: Сэм Рокуэлл, Джордж Клуни, Дик Кларк, Джулия Робертс, Мишель Суини, Дрю Бэрримор, Челси Сеси, Майкл Сера, Айми Роуз Амброзиак, Изабель Блэ, Мелисса Картер, Дженнифер Холл

Описание: По автобиографической книге Чака Бэрриса. Чак Бэррис был автором популярнейших телевизионных развлекательных программ шестидесятых годов. Но не всегда у него дела шли гладко, и однажды, в период очередного кризиса, ему предлагает работу ЦРУ. Бэррису позарез нужны деньги и он соглашается.
Он проходит военную подготовку, где в совершенстве овладевает искусством профессионально отбирать человеческие жизни. Теперь он живет двумя жизнями: в одной он убивает тех, кого правительство сочло за врагов, а в другой он по-прежнему создатель рейтинговых телевизионных шоу.

Интересные факты о фильме
Переговоры по поводу съемок в этой картине вели Майк Майерс, Бен Стиллер, Джим Кэрри, Джон Кьюсак, Джони Депп. Все они планировались на роль Бэрриса.
Первоначально картину должен был ставить Даррен Аранофски, потом Брайан Сингер.
В своем режиссерском дебюте Джордж Клуни дважды сделал отсылку к своей тете, актрисе и певице Розмари Клуни. На седьмой минуте во время экскурсии по студии NBC гид упоминает, что ее любимым шоу является «The Lux Show» с участием Розмари Клуни», а финальные титры проходят под ее песню «There`s No Business Like Show Business».
Свернуть

Награды и номинации
Берлинский кинофестиваль, 2003 год

Победитель (1):
* Серебряный Медведь за лучшую мужскую роль (Сэм Рокуэлл)

Номинации (1):
* Золотой Медведь
Свернуть

Качество: BDRip 720p
Формат: MKV
Видео кодек: H.264
Аудио кодек: AC3, AAC
Видео: 1280x536 (2.4:1), 4657 kbps, 23.976 fps
Аудио №1: Russian; AC3, 6ch, 48 kHz, 384 kbps (Дубляж)
Аудио №2: Russian; AC3, 2ch, 48 kHz, 320 kbps (Двухголосый)
Аудио №3: English; AC3, 6ch, 48 kHz, 640 kbps (Оригинал)
Аудио №4: English; AAC-LC, 2ch, 48 kHz, 84 kbps (Комментарии режиссера)
Субтитры №1: Russian, SRT
Субтитры №2: English, SRT

MI
Общее
Уникальный идентификатор : 225850365377484405002377967667915350876 (0xA9E932BAD1A0A9E0A246BD3F3495635C)
Полное имя : D:\Закачки\Confessions of a Dangerous Mind (2002).mkv
Формат : Matroska
Размер файла : 4,83 Гбайт
Продолжительность : 1 ч. 53 м.
Общий поток : 6087 Кбит/сек
Название фильма : Confessions of a Dangerous Mind (2002) BDRip
Дата кодирования : UTC 2011-11-30 21:42:17
Программа кодирования : mkvmerge v5.1.0 ('And so it goes') built on Nov 28 2011 23:58:28
Библиотека кодирования : libebml v1.2.3 + libmatroska v1.3.0
Обложка : Yes

Видео
Идентификатор : 1
Формат : AVC
Формат/Информация : Advanced Video Codec
Профиль формата : High@L4.0
Параметр CABAC формата : Да
Параметр ReFrames формата : 11 кадров
Идентификатор кодека : V_MPEG4/ISO/AVC
Продолжительность : 1 ч. 53 м.
Ширина : 1280 пикс.
Высота : 536 пикс.
Соотношение сторон : 2,35:1
Частота кадров : 23,976 кадр/сек
Цветовое пространство : YUV
Подвыборка цветности : 4:2:0
Битовая глубина : 8 бит
Тип развёртки : Прогрессивная
Библиотека кодирования : x264 core 119 r2106kMod 07efeb4
Настройки программы : cabac=1 / ref=11 / deblock=1:-3:-2 / analyse=0x3:0x133 / me=umh / subme=11 / psy=1 / fade_compensate=0.00 / psy_rd=1.10:0.05 / mixed_ref=1 / me_range=32 / chroma_me=1 / trellis=2 / 8x8dct=1 / cqm=0 / deadzone=21,11 / fast_pskip=1 / chroma_qp_offset=-3 / threads=6 / sliced_threads=0 / nr=0 / decimate=1 / interlaced=0 / bluray_compat=0 / constrained_intra=0 / bframes=11 / b_pyramid=2 / b_adapt=2 / b_bias=0 / direct=1 / weightb=1 / open_gop=0 / weightp=2 / keyint=250 / keyint_min=23 / scenecut=40 / intra_refresh=0 / rc=crf / mbtree=0 / crf=17.5000 / qcomp=0.70 / qpmin=0 / qpmax=69 / qpstep=4 / ip_ratio=1.40 / pb_ratio=1.20 / aq=3:0.80
Язык : English
Коэффициенты матрицы : BT.709-5, BT.1361, IEC 61966-2-4 709, SMPTE RP177

Аудио #1
Идентификатор : 2
Формат : AC-3
Формат/Информация : Audio Coding 3
Расширение режима : CM (complete main)
Идентификатор кодека : A_AC3
Продолжительность : 1 ч. 53 м.
Вид битрейта : Постоянный
Битрейт : 384 Кбит/сек
Каналы : 6 каналов
Расположение каналов : Front: L C R, Side: L R, LFE
Частота : 48,0 КГц
Битовая глубина : 16 бит
Метод сжатия : С потерями
Размер потока : 312 Мбайт (6%)
Заголовок : Dub
Язык : Russian

Аудио #2
Идентификатор : 3
Формат : AC-3
Формат/Информация : Audio Coding 3
Профиль формата : Dolby Digital
Расширение режима : CM (complete main)
Идентификатор кодека : A_AC3
Продолжительность : 1 ч. 53 м.
Вид битрейта : Постоянный
Битрейт : 320 Кбит/сек
Каналы : 2 канала
Расположение каналов : Front: L R
Частота : 48,0 КГц
Битовая глубина : 16 бит
Метод сжатия : С потерями
Размер потока : 260 Мбайт (5%)
Заголовок : DVO
Язык : Russian

Аудио #3
Идентификатор : 4
Формат : AC-3
Формат/Информация : Audio Coding 3
Расширение режима : CM (complete main)
Идентификатор кодека : A_AC3
Продолжительность : 1 ч. 53 м.
Вид битрейта : Постоянный
Битрейт : 640 Кбит/сек
Каналы : 6 каналов
Расположение каналов : Front: L C R, Side: L R, LFE
Частота : 48,0 КГц
Битовая глубина : 16 бит
Метод сжатия : С потерями
Размер потока : 520 Мбайт (11%)
Заголовок : Original
Язык : English

Аудио #4
Идентификатор : 5
Формат : AAC
Формат/Информация : Advanced Audio Codec
Профиль формата : LC
Идентификатор кодека : A_AAC
Продолжительность : 1 ч. 53 м.
Каналы : 2 канала
Расположение каналов : Front: L R
Частота : 48,0 КГц
Метод сжатия : С потерями
Заголовок : Commentary (George Clooney)
Язык : English

Текст #1
Идентификатор : 6
Формат : UTF-8
Идентификатор кодека : S_TEXT/UTF8
Идентификатор кодека/Информация : UTF-8 Plain Text
Язык : Russian

Текст #2
Идентификатор : 7
Формат : UTF-8
Идентификатор кодека : S_TEXT/UTF8
Идентификатор кодека/Информация : UTF-8 Plain Text
Язык : English

Свернуть

Скриншоты
ИзображениеИзображениеИзображениеИзображениеИзображениеИзображение
Свернуть
Не в сети
Профиль  
 Добавлено: 2012-01-07 18:40 (спустя 1 месяц)
Аватара пользователя
Стаж: 7 лет 11 месяцев
Сообщений: 786
Спасибок: 25
Лайков: 9
:par_don: Не видел этот Фильм качаю ...
Не в сети
Профиль  
Начать новую темуОтветить на тему  [ Сообщений: 2 ] 
Вы не можете начинать темы
Вы не можете отвечать на сообщения
Вы не можете редактировать свои сообщения
Вы не можете удалять свои сообщения