Правила форума

  • В этом разделе создание новых тем Запрещено.
  • Для создания новых тем пользуйтесь Корневым разделом DVD и HD фильмы.
Начать новую темуОтветить на тему  [ 1 сообщение ] 
Торрент файл
Размер: 17.18 GB • Зарегистрирован: 4 года 6 месяцев • Статус: Проверено
Скачан: 76 раз • Желающих скачать: 0 • Поблагодарили: 15 раз
 Раздают: 0  |  0 KB/s  ]   Качают: 0  |  0 KB/s  ] 
 Полного источника не было 11 дней 
Сообщения
 Добавлено: 2012-05-28 18:18
Модератор
Аватара пользователя
Стаж: 6 лет 10 месяцев
Возраст: 33
Сообщений: 5908
Спасибок: 61244
Лайков: 3540
Изображение

Призрачный гонщик 2 / Ghost Rider: Spirit of Vengeance


Год выпуска: 2011
Страна: США, ОАЭ
Жанр: фэнтези, боевик, триллер
Продолжительность: 01:35:31
Перевод: Профессиональный (полное дублирование)
Режиссер: Марк Невелдайн, Брайан Тейлор
Сценарий: Дэвид С. Гойер, Скотт М. Гимпл, Сет Хоффман
Продюсер: Ашок Амритрадж, Стивен Пол, Ари Арад
Оператор: Брэндон Трост
Композитор: Дэвид Сарди
В ролях: Николас Кейдж, Кирен Хайдз, Виоланте Плачидо, Джонни Витуорт, Кристофер Ламберт, Идрис Эльба, Фергус Риордан, Спенсер Уидлинг, Сорин Тофан, Яцек , Коман.
Бюджет: $57 000 000
Сборы в США: $51 774 002
Сборы в России: $13 285 571
Сборы в мире: $132 563 930
Описание: Действие разворачивается на задворках Восточной Европы, где главный герой Джонни Блэйз безуспешно пытается справиться со своим проклятием. Его принимает на работу некая секта, которая пытается заполучить дьявола в тот момент, когда он пытается вселиться в тело его смертного сына на дне рождения мальчика.
Изображение
MPAA: Изображение
Мировая премьера: 11 декабря 2011
Релиз на DVD: 4 июня 2012, «Новый Диск»
Релиз на Blu-ray: 4 июня 2012, «Новый Диск»
Раздача группы: Изображение
Качество: BD-Remux, 1080p
Формат: Matroska
Видео: AVC; 1920x1080 (16:9); 23,976 fps
Аудио №1: Russian; AC3; 448 Kbps; CBR; 6 ch
Аудио №2: DTS-HD; VBR; 6 ch; 16 bit
Оригинал
Субтитры №1: Russian
Субтитры №2: Russian
Субтитры №3:
Субтитры №4:
Субтитры №5:


"Знаете ли Вы, что..."
  • Призрачный Гонщик придуман Роем Томасом, Гэри Фридрихом и Майком Плугом. Персонаж впервые появился в комиксе Marvel Spotlight #5 в 1973 году. Данный фильм не основан на каком-либо определенном сюжете из комиксов.
  • Съёмки фильма начались в ноябре 2010 года и проходили в Румынии в городах Бухаресте, Сибиу, Ровинари и Хунедоаре, на озере Видрару, Трансфэгэрашском шоссе и в Замке Корвинов.
Свернуть
MediaInfo
Общее
Уникальный идентификатор : 201148850765132118949896466250215051082 (0x9753DC07FADF8920B8839E26FCA5CF4A)
Полное имя : Z:BLU-RAY REMUXPrizrachnyj.gonschik-2.2012.MPEG-4-AVC.BluRay-Remux(1080p).mkv
Формат : Matroska
Версия формата : Version 2
Размер файла : 17,2 Гбайт
Продолжительность : 1 ч. 35 м.
Режим общего битрейта : Переменный
Общий поток : 25,8 Мбит/сек
Название фильма : --SCHUMAHER--
Дата кодирования : UTC 2012-05-28 10:50:05
Программа кодирования : mkvmerge v5.6.0 ('Kenya Kane') built on May 27 2012 16:44:04
Библиотека кодирования : libebml v1.2.3 + libmatroska v1.3.0

Видео
Идентификатор : 1
Формат : AVC
Формат/Информация : Advanced Video Codec
Профиль формата : High@L4.1
Параметр CABAC формата : Да
Параметр ReFrames формата : 4 кадра
Идентификатор кодека : V_MPEG4/ISO/AVC
Продолжительность : 1 ч. 35 м.
Вид битрейта : Переменный
Битрейт : 22,5 Мбит/сек
Максимальный битрейт : 32,0 Мбит/сек
Ширина : 1920 пикселей
Высота : 1080 пикселей
Соотношение сторон : 16:9
Частота кадров : 23,976 кадра/сек
Цветовое пространство : YUV
Субдискретизация насыщенности : 4:2:0
Битовая глубина : 8 бит
Тип развёртки : Прогрессивная
Бит/(Пиксели*Кадры) : 0.453
Размер потока : 15,0 Гбайт (88%)
Язык : English
Default : Да
Forced : Да

Аудио #1
Идентификатор : 2
Формат : AC-3
Формат/Информация : Audio Coding 3
Расширение режима : CM (complete main)
Параметр Endianness формата : Big
Идентификатор кодека : A_AC3
Продолжительность : 1 ч. 35 м.
Вид битрейта : Постоянный
Битрейт : 448 Кбит/сек
Каналы : 6 каналов
Расположение каналов : Front: L C R, Side: L R, LFE
Частота : 48,0 КГц
Битовая глубина : 16 бит
Метод сжатия : С потерями
Размер потока : 306 Мбайт (2%)
Язык : Russian
Default : Да
Forced : Да

Аудио #2
Идентификатор : 3
Формат : DTS
Формат/Информация : Digital Theater Systems
Профиль формата : MA / Core
Идентификатор кодека : A_DTS
Продолжительность : 1 ч. 35 м.
Вид битрейта : Переменный
Битрейт : 2251 Кбит/сек / 1510 Кбит/сек
Каналы : 6 каналов
Расположение каналов : Front: L C R, Side: L R, LFE
Частота : 48,0 КГц
Битовая глубина : 16 бит
Метод сжатия : Без потерь / Lossy
Язык : English
Default : Нет
Forced : Нет

Текст #1
Идентификатор : 4
Формат : UTF-8
Идентификатор кодека : S_TEXT/UTF8
Идентификатор кодека/Информация : UTF-8 Plain Text
Заголовок : Forced
Язык : Russian
Default : Нет
Forced : Нет

Текст #2
Идентификатор : 5
Формат : UTF-8
Идентификатор кодека : S_TEXT/UTF8
Идентификатор кодека/Информация : UTF-8 Plain Text
Заголовок : Full
Язык : Russian
Default : Нет
Forced : Нет

Текст #3
Идентификатор : 6
Формат : UTF-8
Идентификатор кодека : S_TEXT/UTF8
Идентификатор кодека/Информация : UTF-8 Plain Text
Заголовок : Forced
Язык : English
Default : Нет
Forced : Нет

Текст #4
Идентификатор : 7
Формат : UTF-8
Идентификатор кодека : S_TEXT/UTF8
Идентификатор кодека/Информация : UTF-8 Plain Text
Заголовок : Full
Язык : English
Default : Нет
Forced : Нет

Текст #5
Идентификатор : 8
Формат : UTF-8
Идентификатор кодека : S_TEXT/UTF8
Идентификатор кодека/Информация : UTF-8 Plain Text
Заголовок : Full SDH
Язык : English
Default : Нет
Forced : Нет

Меню
00:00:00.000 : en:
00:06:34.059 : en:
00:11:54.213 : en:
00:15:15.330 : en:
00:19:09.272 : en:
00:25:47.587 : en:
00:28:22.617 : en:
00:35:01.516 : en:
00:43:24.018 : en:
00:51:51.065 : en:
01:00:00.304 : en:
01:03:59.335 : en:
01:11:04.760 : en:
01:14:01.103 : en:
01:20:02.130 : en:
01:25:29.207 : en:


ORIGINAL DISC INFO:


Disc Title: Ghost Rider Spirit of Vengeance 2012 1080p 2D Blu-Ray AVC DTS-HD MA 5.1-HDChina
Disc Size: 49,367,137,733 bytes
Protection: AACS
BD-Java: Yes
Playlist: 00800.MPLS
Size: 25,705,451,520 bytes
Length: 1:35:31
Total Bitrate: 35.88 Mbps

VIDEO:

Codec Bitrate Deion
----- ------- -----------
MPEG-4 AVC Video 22962 kbps 1080p / 23.976 fps / 16:9 / High Profile 4.1
MPEG-4 AVC Video 1963 kbps 480p / 23.976 fps / 16:9 / High Profile 3.2

AUDIO:

Codec Language Bitrate Deion
----- -------- ------- -----------
DTS-HD Master Audio English 2452 kbps 5.1 / 48 kHz / 2452 kbps / 16-bit (DTS Core: 5.1 / 48 kHz / 1509 kbps / 16-bit)
Dolby Digital Audio English 448 kbps 5.1 / 48 kHz / 448 kbps / DN -4dB
Dolby Digital Audio Catalan 448 kbps 5.1 / 48 kHz / 448 kbps / DN -4dB
DTS-HD Master Audio French 2462 kbps 5.1 / 48 kHz / 2462 kbps / 16-bit (DTS Core: 5.1 / 48 kHz / 1509 kbps / 16-bit)
DTS-HD Master Audio Spanish 2462 kbps 5.1 / 48 kHz / 2462 kbps / 16-bit (DTS Core: 5.1 / 48 kHz / 1509 kbps / 16-bit)
Dolby Digital Audio English 192 kbps 2.0 / 48 kHz / 192 kbps / DN -4dB

SUBTITLES:

Codec Language Bitrate Deion
----- -------- ------- -----------
Presentation Graphics English 16.793 kbps
Presentation Graphics English 16.798 kbps
Presentation Graphics English 15.811 kbps
Presentation Graphics French 14.795 kbps
Presentation Graphics Spanish 16.650 kbps
Presentation Graphics Catalan 0.361 kbps
Presentation Graphics French 0.287 kbps
Presentation Graphics English 35.293 kbps
Presentation Graphics Spanish 33.520 kbps

Свернуть

Скриншоты

Изображение
Изображение
Изображение
Изображение
Изображение
Изображение
Изображение
Изображение
Изображение
Свернуть
_________________
ИзображениеИзображение Изображение
Изображение
 tany1984 и di-ys1 нравится это.
Не в сети
Профиль  
Начать новую темуОтветить на тему  [ 1 сообщение ] 
Вы не можете начинать темы
Вы не можете отвечать на сообщения
Вы не можете редактировать свои сообщения
Вы не можете удалять свои сообщения