Правила форума

  • В этом разделе создание новых тем Запрещено.
  • Для создания новых тем пользуйтесь Корневым разделом DVD и HD фильмы.
Начать новую темуОтветить на тему  [ Сообщений: 2 ] 
Торрент файл
Размер: 5.47 GB • Зарегистрирован: 5 лет 2 месяца • Статус: Проверено
Скачан: 369 раз • Желающих скачать: 0 • Поблагодарили: 54 раза
 Раздают: 1  |  0 KB/s  ]   Качают: 0  |  0 KB/s  ] 
Сообщения
 Добавлено: 2011-09-24 12:01
Top-seeder
Аватара пользователя
Стаж: 9 лет
Сообщений: 1399
Спасибок: 28654
Лайков: 8
Призрачный гонщик [Расширенная версия] / Ghost Rider [Extended Cut]

Изображение


Перевод: Профессиональный (полное дублирование)
Субтитры: русские
Формат: BDRip, MKV, H.264, AC3
Страна: США, Австралия
Режиссер: Марк Стивен Джонсон
Жанр: боевик, триллер, фэнтези
Продолжительность: 02:03:35
Год выпуска: 2007

В ролях: Николас Кейдж, Ева Мендез, Мэтт Лонг, Рэкуэл Алесси, Бретт Каллен, Питер Фонда, Донал Лог, Тони Гоустхок, Хью Секстон, Маркус Джонс, Мэтт Норман, Лоуренс Камерон Стил, Уэс Бентли, Эдди Бару, Джесика Напье, Дэниэл Фредериксен, Мэттью Уилкинсон, Керсти Хаттон, Гибсон Нолт, Райан Джонсон

Описание: Чтобы спасти своего отца от верной гибели, байкер-экстремал Джонни Блэйз заключает сделку с дьяволом, объектом которой является его бессмертная душа. Проходят годы, и дьявол предъявляет свои права по контракту. Он превращает Джонни в Призрачного Гонщика, агента потусторонних сил, обладающего сверхчеловеческими способностями.
С наступлением ночи он проносится по городу на своем «адском» Харлее и собирает людскую «дань» для своего нового хозяина. И хотя контракт бессрочный, и колесить бы ему до конца своих дней, оставляя огненный след на темных улицах, но светлая сторона главного героя все-таки одерживает победу над силами тьмы.

Видео: 1280x528p (2.40:1), 23.976 fps, MPEG4 AVC, High@L5.1, ~4427 kbps avg, 0.273 bit/pixel
Аудио #1: русский 48 kHz, AC3, 6 ch, ~448 kbps avg [Профессиональный (полное дублирование)]
Аудио #2: русский 48 kHz, AC3, 6 ch, ~640 kbps avg [Профессиональный (многоголосый закадровый)] (Внешний файл)
Аудио #3: русский 48 kHz, AC3, 6 ch, ~384 kbps avg [Авторский одноголосый (В. Королёв)]
Аудио #4: английский 48 kHz, AC3, 6 ch, ~448 kbps avg [Оригинал]

Слоган: «Когда-то он заключил сделку во имя любви...»

Доп. информация
Дублированный перевод в этой версии сочетается с профессиональным многоголосым.
Свернуть
MediaInfo
Общее
Уникальный идентификатор : 208119065694688532791211787915615897631 (0x9C924628EC3044C999676B27707D881F)
Полное имя : D:\Закачки\Призрачный гонщик [Расширенная версия]\Prizrachnyj_gonshik.2007.x264.BDRip.ExtCut.720p.mkv
Формат : Matroska
Размер файла : 4,92 Гбайт
Продолжительность : 2 ч. 3 м.
Общий поток : 5700 Кбит/сек
Дата кодирования : UTC 2010-12-02 13:26:45
Программа кодирования : mkvmerge v3.1.0 ('Happy up here') built on Jan 19 2010 12:09:24
Библиотека кодирования : libebml v0.7.9 + libmatroska v0.8.1

Видео
Идентификатор : 1
Формат : AVC
Формат/Информация : Advanced Video Codec
Профиль формата : High@L5.1
Параметр CABAC формата : Да
Параметр ReFrames формата : 9 кадров
Идентификатор кодека : V_MPEG4/ISO/AVC
Продолжительность : 2 ч. 3 м.
Битрейт : 4427 Кбит/сек
Ширина : 1280 пикс.
Высота : 528 пикс.
Соотношение сторон : 2,40:1
Соотношение сторон в оригинале : 2,40:1
Частота кадров : 23,976 кадр/сек
Цветовое пространство : YUV
Подвыборка цветности : 4:2:0
Битовая глубина : 8 бит
Тип развёртки : Прогрессивная
Бит/(Пиксели*Кадры) : 0.273
Размер потока : 3,72 Гбайт (76%)
Заголовок : 2007.x264.BDRip.ExtCut.720p
Библиотека кодирования : x264 core 55
Настройки программы : cabac=1 / ref=6 / deblock=1:-3:-3 / analyse=0x3:0x133 / me=umh / subme=7 / brdo=1 / mixed_ref=1 / me_range=16 / chroma_me=1 / trellis=1 / 8x8dct=1 / cqm=2 / deadzone=21,11 / chroma_qp_offset=0 / threads=2 / nr=0 / decimate=0 / mbaff=0 / bframes=3 / b_pyramid=1 / b_adapt=1 / b_bias=0 / direct=3 / wpredb=1 / bime=1 / keyint=250 / keyint_min=25 / scenecut=40(pre) / rc=2pass / bitrate=4427 / ratetol=1.0 / rceq='blurCplx^(1-qComp)' / qcomp=0.60 / qpmin=10 / qpmax=51 / qpstep=4 / cplxblur=20.0 / qblur=0.5 / ip_ratio=1.40 / pb_ratio=1.30
Язык : English

Аудио #1
Идентификатор : 2
Формат : AC-3
Формат/Информация : Audio Coding 3
Расширение режима : CM (complete main)
Идентификатор кодека : A_AC3
Продолжительность : 2 ч. 3 м.
Вид битрейта : Постоянный
Битрейт : 448 Кбит/сек
Каналы : 2 канала
Расположение каналов : Front: L R
Частота : 48,0 КГц
Битовая глубина : 16 бит
Метод сжатия : С потерями
Размер потока : 396 Мбайт (8%)
Заголовок : DUB+MVO (ExtCut)
Язык : Russian

Аудио #2
Идентификатор : 3
Формат : AC-3
Формат/Информация : Audio Coding 3
Расширение режима : CM (complete main)
Идентификатор кодека : A_AC3
Продолжительность : 2 ч. 3 м.
Вид битрейта : Постоянный
Битрейт : 384 Кбит/сек
Каналы : 6 каналов
Расположение каналов : Front: L C R, Side: L R, LFE
Частота : 48,0 КГц
Битовая глубина : 16 бит
Метод сжатия : С потерями
Размер потока : 339 Мбайт (7%)
Заголовок : AVO (В. Королёв)
Язык : Russian

Аудио #3
Идентификатор : 4
Формат : AC-3
Формат/Информация : Audio Coding 3
Расширение режима : CM (complete main)
Идентификатор кодека : A_AC3
Продолжительность : 2 ч. 3 м.
Вид битрейта : Постоянный
Битрейт : 448 Кбит/сек
Каналы : 6 каналов
Расположение каналов : Front: L C R, Side: L R, LFE
Частота : 48,0 КГц
Битовая глубина : 16 бит
Метод сжатия : С потерями
Размер потока : 396 Мбайт (8%)
Заголовок : Оригинал
Язык : English

Текст
Идентификатор : 5
Формат : UTF-8
Идентификатор кодека : S_TEXT/UTF8
Идентификатор кодека/Информация : UTF-8 Plain Text
Заголовок : русский
Язык : Russian

Свернуть
MediaInfo на внешний файл
Общее
Уникальный идентификатор : 210399621500754279913114963928093363971 (0x9E497E3E00FF18E19C2CF43F8E010F03)
Полное имя : D:\Закачки\Призрачный гонщик [Расширенная версия]\Prizrachnyj_gonshik.2007.MVO.rus.ExtCut.ac3
Формат : Matroska
Размер файла : 566 Мбайт
Продолжительность : 2 ч. 3 м.
Общий поток : 641 Кбит/сек
Дата кодирования : UTC 2010-12-02 13:20:56
Программа кодирования : mkvmerge v3.1.0 ('Happy up here') built on Jan 19 2010 12:09:24
Библиотека кодирования : libebml v0.7.9 + libmatroska v0.8.1

Аудио
Идентификатор : 1
Формат : AC-3
Формат/Информация : Audio Coding 3
Расширение режима : CM (complete main)
Идентификатор кодека : A_AC3
Продолжительность : 2 ч. 3 м.
Вид битрейта : Постоянный
Битрейт : 640 Кбит/сек
Каналы : 6 каналов
Расположение каналов : Front: L C R, Side: L R, LFE
Частота : 48,0 КГц
Битовая глубина : 16 бит
Метод сжатия : С потерями
Размер потока : 565 Мбайт (100%)
Заголовок : MVO
Язык : Russian

Свернуть
Скриншоты
ИзображениеИзображениеИзображениеИзображениеИзображение
Свернуть
Не в сети
Профиль  
 Добавлено: 2012-02-19 23:57 (спустя 4 месяца 25 дней)
Стаж: 5 лет 6 месяцев
Сообщений: 2
:ps_ih: да, да точно!!!!
Не в сети
Профиль  
Начать новую темуОтветить на тему  [ Сообщений: 2 ] 
Вы не можете начинать темы
Вы не можете отвечать на сообщения
Вы не можете редактировать свои сообщения
Вы не можете удалять свои сообщения